  0
SECTION
  2
HEADER
  9
$ACADVER
  1
AC1015
  9
$ACADMAINTVER
 70
    20
  9
$DWGCODEPAGE
  3
ANSI_932
  9
$INSBASE
 10
0.0
 20
0.0
 30
0.0
  9
$EXTMIN
 10
-0.0372044927244133
 20
-0.0196918708068097
 30
-0.0015258207003583
  9
$EXTMAX
 10
427.6150827637049
 20
612.2059451120487
 30
0.0000000349246037
  9
$LIMMIN
 10
0.0
 20
0.0
  9
$LIMMAX
 10
420.0
 20
297.0
  9
$ORTHOMODE
 70
     0
  9
$REGENMODE
 70
     1
  9
$FILLMODE
 70
     1
  9
$QTEXTMODE
 70
     0
  9
$MIRRTEXT
 70
     0
  9
$LTSCALE
 40
1.0
  9
$ATTMODE
 70
     1
  9
$TEXTSIZE
 40
4.0
  9
$TRACEWID
 40
1.0
  9
$TEXTSTYLE
  7
ｺﾞｼｯｸ
  9
$CLAYER
  8
0
  9
$CELTYPE
  6
ByLayer
  9
$CECOLOR
 62
   256
  9
$CELTSCALE
 40
1.0
  9
$DISPSILH
 70
     0
  9
$DIMSCALE
 40
1.0
  9
$DIMASZ
 40
1.5
  9
$DIMEXO
 40
3.0
  9
$DIMDLI
 40
10.0
  9
$DIMRND
 40
0.0
  9
$DIMDLE
 40
0.0
  9
$DIMEXE
 40
1.0
  9
$DIMTP
 40
0.1
  9
$DIMTM
 40
0.1
  9
$DIMTXT
 40
5.0
  9
$DIMCEN
 40
0.0
  9
$DIMTSZ
 40
0.0
  9
$DIMTOL
 70
     0
  9
$DIMLIM
 70
     0
  9
$DIMTIH
 70
     0
  9
$DIMTOH
 70
     0
  9
$DIMSE1
 70
     0
  9
$DIMSE2
 70
     0
  9
$DIMTAD
 70
     3
  9
$DIMZIN
 70
     8
  9
$DIMBLK
  1
DOT
  9
$DIMASO
 70
     1
  9
$DIMSHO
 70
     1
  9
$DIMPOST
  1

  9
$DIMAPOST
  1
"
  9
$DIMALT
 70
     0
  9
$DIMALTD
 70
     2
  9
$DIMALTF
 40
0.0393701
  9
$DIMLFAC
 40
1.0
  9
$DIMTOFL
 70
     1
  9
$DIMTVP
 40
0.0
  9
$DIMTIX
 70
     0
  9
$DIMSOXD
 70
     0
  9
$DIMSAH
 70
     0
  9
$DIMBLK1
  1

  9
$DIMBLK2
  1

  9
$DIMSTYLE
  2
OSAMARI_標準
  9
$DIMCLRD
 70
   143
  9
$DIMCLRE
 70
   143
  9
$DIMCLRT
 70
     7
  9
$DIMTFAC
 40
0.71
  9
$DIMGAP
 40
1.5
  9
$DIMJUST
 70
     0
  9
$DIMSD1
 70
     0
  9
$DIMSD2
 70
     0
  9
$DIMTOLJ
 70
     0
  9
$DIMTZIN
 70
     8
  9
$DIMALTZ
 70
     0
  9
$DIMALTTZ
 70
     0
  9
$DIMUPT
 70
     0
  9
$DIMDEC
 70
     2
  9
$DIMTDEC
 70
     2
  9
$DIMALTU
 70
     2
  9
$DIMALTTD
 70
     2
  9
$DIMTXSTY
  7
ｺﾞｼｯｸ
  9
$DIMAUNIT
 70
     0
  9
$DIMADEC
 70
     1
  9
$DIMALTRND
 40
0.0
  9
$DIMAZIN
 70
     2
  9
$DIMDSEP
 70
    46
  9
$DIMATFIT
 70
     3
  9
$DIMFRAC
 70
     0
  9
$DIMLDRBLK
  1
Open30
  9
$DIMLUNIT
 70
     2
  9
$DIMLWD
 70
    -1
  9
$DIMLWE
 70
    -1
  9
$DIMTMOVE
 70
     0
  9
$LUNITS
 70
     2
  9
$LUPREC
 70
     2
  9
$SKETCHINC
 40
1.0
  9
$FILLETRAD
 40
0.0
  9
$AUNITS
 70
     0
  9
$AUPREC
 70
     0
  9
$MENU
  1
.
  9
$ELEVATION
 40
0.0
  9
$PELEVATION
 40
0.0
  9
$THICKNESS
 40
0.0
  9
$LIMCHECK
 70
     0
  9
$CHAMFERA
 40
0.0
  9
$CHAMFERB
 40
0.0
  9
$CHAMFERC
 40
0.0
  9
$CHAMFERD
 40
0.0
  9
$SKPOLY
 70
     0
  9
$TDCREATE
 40
2454277.365479780
  9
$TDUCREATE
 40
2454276.990479780
  9
$TDUPDATE
 40
2454281.396657801
  9
$TDUUPDATE
 40
2454281.021657801
  9
$TDINDWG
 40
0.0021028588
  9
$TDUSRTIMER
 40
0.0021028588
  9
$USRTIMER
 70
     1
  9
$ANGBASE
 50
0.0
  9
$ANGDIR
 70
     0
  9
$PDMODE
 70
     0
  9
$PDSIZE
 40
0.0
  9
$PLINEWID
 40
0.0
  9
$SPLFRAME
 70
     0
  9
$SPLINETYPE
 70
     6
  9
$SPLINESEGS
 70
     8
  9
$HANDSEED
  5
1A49
  9
$SURFTAB1
 70
     6
  9
$SURFTAB2
 70
     6
  9
$SURFTYPE
 70
     6
  9
$SURFU
 70
     6
  9
$SURFV
 70
     6
  9
$UCSBASE
  2

  9
$UCSNAME
  2

  9
$UCSORG
 10
0.0
 20
0.0
 30
0.0
  9
$UCSXDIR
 10
1.0
 20
0.0
 30
0.0
  9
$UCSYDIR
 10
0.0
 20
1.0
 30
0.0
  9
$UCSORTHOREF
  2

  9
$UCSORTHOVIEW
 70
     0
  9
$UCSORGTOP
 10
0.0
 20
0.0
 30
0.0
  9
$UCSORGBOTTOM
 10
0.0
 20
0.0
 30
0.0
  9
$UCSORGLEFT
 10
0.0
 20
0.0
 30
0.0
  9
$UCSORGRIGHT
 10
0.0
 20
0.0
 30
0.0
  9
$UCSORGFRONT
 10
0.0
 20
0.0
 30
0.0
  9
$UCSORGBACK
 10
0.0
 20
0.0
 30
0.0
  9
$PUCSBASE
  2

  9
$PUCSNAME
  2

  9
$PUCSORG
 10
0.0
 20
0.0
 30
0.0
  9
$PUCSXDIR
 10
1.0
 20
0.0
 30
0.0
  9
$PUCSYDIR
 10
0.0
 20
1.0
 30
0.0
  9
$PUCSORTHOREF
  2

  9
$PUCSORTHOVIEW
 70
     0
  9
$PUCSORGTOP
 10
0.0
 20
0.0
 30
0.0
  9
$PUCSORGBOTTOM
 10
0.0
 20
0.0
 30
0.0
  9
$PUCSORGLEFT
 10
0.0
 20
0.0
 30
0.0
  9
$PUCSORGRIGHT
 10
0.0
 20
0.0
 30
0.0
  9
$PUCSORGFRONT
 10
0.0
 20
0.0
 30
0.0
  9
$PUCSORGBACK
 10
0.0
 20
0.0
 30
0.0
  9
$USERI1
 70
     0
  9
$USERI2
 70
     0
  9
$USERI3
 70
     0
  9
$USERI4
 70
     0
  9
$USERI5
 70
     0
  9
$USERR1
 40
0.0
  9
$USERR2
 40
0.0
  9
$USERR3
 40
0.0
  9
$USERR4
 40
0.0
  9
$USERR5
 40
0.0
  9
$WORLDVIEW
 70
     1
  9
$SHADEDGE
 70
     3
  9
$SHADEDIF
 70
    70
  9
$TILEMODE
 70
     1
  9
$MAXACTVP
 70
    64
  9
$PINSBASE
 10
0.0
 20
0.0
 30
0.0
  9
$PLIMCHECK
 70
     0
  9
$PEXTMIN
 10
1.000000000000000E+20
 20
1.000000000000000E+20
 30
1.000000000000000E+20
  9
$PEXTMAX
 10
-1.000000000000000E+20
 20
-1.000000000000000E+20
 30
-1.000000000000000E+20
  9
$PLIMMIN
 10
0.0
 20
0.0
  9
$PLIMMAX
 10
420.0
 20
297.0
  9
$UNITMODE
 70
     0
  9
$VISRETAIN
 70
     1
  9
$PLINEGEN
 70
     0
  9
$PSLTSCALE
 70
     1
  9
$TREEDEPTH
 70
  3020
  9
$CMLSTYLE
  2
Standard
  9
$CMLJUST
 70
     0
  9
$CMLSCALE
 40
20.0
  9
$PROXYGRAPHICS
 70
     1
  9
$MEASUREMENT
 70
     1
  9
$CELWEIGHT
370
    -1
  9
$ENDCAPS
280
     0
  9
$JOINSTYLE
280
     0
  9
$LWDISPLAY
290
     0
  9
$INSUNITS
 70
     4
  9
$HYPERLINKBASE
  1

  9
$STYLESHEET
  1

  9
$XEDIT
290
     1
  9
$CEPSNTYPE
380
     0
  9
$PSTYLEMODE
290
     1
  9
$FINGERPRINTGUID
  2
{9888546C-262D-4377-B077-BB4D021CB3FC}
  9
$VERSIONGUID
  2
{AB053A87-3350-4E36-8EE9-055A64E1FD22}
  9
$EXTNAMES
290
     1
  9
$PSVPSCALE
 40
0.0
  9
$OLESTARTUP
290
     0
  0
ENDSEC
  0
SECTION
  2
CLASSES
  0
CLASS
  1
ACDBDICTIONARYWDFLT
  2
AcDbDictionaryWithDefault
  3
ObjectDBX Classes
 90
        0
280
     0
281
     0
  0
CLASS
  1
MATERIAL
  2
AcDbMaterial
  3
ObjectDBX Classes
 90
     1153
280
     0
281
     0
  0
CLASS
  1
VISUALSTYLE
  2
AcDbVisualStyle
  3
ObjectDBX Classes
 90
     4095
280
     0
281
     0
  0
CLASS
  1
TABLESTYLE
  2
AcDbTableStyle
  3
ObjectDBX Classes
 90
     4095
280
     0
281
     0
  0
CLASS
  1
AMGSETTINGSOBJ
  2
AmgSettingsObj
  3
"AcadM|Product Description: AutoCAD Mechanical|Company: Autodesk"
 90
        0
280
     0
281
     0
  0
CLASS
  1
ACME_DOCUMENT
  2
AcMeDbDoc
  3
AcMeServices
 90
        0
280
     0
281
     0
  0
CLASS
  1
ACMESCOPE
  2
AcMeScope
  3
AcMeServices
 90
        0
280
     0
281
     0
  0
CLASS
  1
ACMECOMMANDHISTORY
  2
AcMeCommandHistory
  3
AcMeServices
 90
        0
280
     0
281
     0
  0
CLASS
  1
ACIMSYSVARMAN
  2
AcImSysVarManager
  3
AcMeServices
 90
        0
280
     0
281
     0
  0
CLASS
  1
ACIMINTSYSVAR
  2
AcImIntSysVar
  3
AcMeServices
 90
        0
280
     0
281
     0
  0
CLASS
  1
ACMEDRAWINGMAN
  2
AcMeDrawingMan
  3
AcMeServices
 90
        0
280
     0
281
     0
  0
CLASS
  1
ACMEVIEW
  2
AcMeView
  3
AcMeServices
 90
        0
280
     0
281
     0
  0
CLASS
  1
ACDBENTITYCACHE
  2
AcMeEntityCache
  3
AcMeServices
 90
        0
280
     0
281
     0
  0
CLASS
  1
GSMANAGER
  2
AcMeGSManager
  3
AcMeServices
 90
        0
280
     0
281
     0
  0
CLASS
  1
AMDTINTERNALREACTOR
  2
AmdtInternalReactor
  3
AcMeServices
 90
        0
280
     0
281
     0
  0
CLASS
  1
ACMESTATEMGR
  2
AcMeStateMgr
  3
AcMeServices
 90
        0
280
     0
281
     0
  0
CLASS
  1
ACGREFMASTER
  2
AcGrefMaster
  3
AcAttribServices
 90
        0
280
     0
281
     0
  0
CLASS
  1
AM_DRAWING_MGR
  2
AcDmDwgMgr
  3
AcMechDwgViewMgmt
 90
        0
280
     0
281
     0
  0
CLASS
  1
AM_DWG_DOCUMENT
  2
AcDmDwgDocument
  3
AcMechDwgViewMgmt
 90
        0
280
     0
281
     0
  0
CLASS
  1
AM_DWG_SHEET
  2
AcDmSheet
  3
AcMechDwgViewMgmt
 90
        0
280
     0
281
     0
  0
CLASS
  1
AM_VIEWDIMPARMAP
  2
AcDmViewDimParMap
  3
AcMechDwgViewMgmt
 90
        0
280
     0
281
     0
  0
CLASS
  1
ACIMREALSYSVAR
  2
AcImRealSysVar
  3
AcMeServices
 90
        0
280
     0
281
     0
  0
CLASS
  1
AM_DWGMGR_NAME
  2
AcDmDwgMgrName
  3
AcMechDwgViewMgmt
 90
        0
280
     0
281
     0
  0
CLASS
  1
ACME_DATABASE
  2
AcMeDbDatabase
  3
AcMeServices
 90
        0
280
     0
281
     0
  0
CLASS
  1
ACRFINSADJUSTERMGR
  2
AcRfInsAdjusterMgr
  3
AcMeServices
 90
        0
280
     0
281
     0
  0
CLASS
  1
ACGREFACADMASTER
  2
AcGrefacadMaster
  3
AcGrefServices
 90
        0
280
     0
281
     0
  0
CLASS
  1
AMDTMENUSTATEMGR
  2
AmdtMenuStateMgr
  3
McadcomServices
 90
        0
280
     0
281
     0
  0
CLASS
  1
AMDTMCOMMENUSTATE
  2
AmdtMcomMenuState
  3
McadcomServices
 90
        0
280
     0
281
     0
  0
CLASS
  1
AMIMASTER
  2
AmiMaster
  3
AmiServices
 90
        0
280
     0
281
     0
  0
CLASS
  1
MAPIAMMOUDLE
  2
MApiAmModule
  3
MApiAmServices
 90
        0
280
     0
281
     0
  0
CLASS
  1
ACIMSTRSYSVAR
  2
AcImStrSysVar
  3
AcMeServices
 90
        0
280
     0
281
     0
  0
CLASS
  1
AMDTADMENUSTATE
  2
AmdtAdMenuState
  3
DesignerServices
 90
        0
280
     0
281
     0
  0
CLASS
  1
ADAPPL
  2
AcAdAppl
  3
DesignerServices
 90
        0
280
     0
281
     0
  0
CLASS
  1
DEPMGR
  2
AcAdDepMgr
  3
DesignerServices
 90
        0
280
     0
281
     0
  0
CLASS
  1
PARAMMGR
  2
AcAdParamMgr
  3
DesignerServices
 90
        0
280
     0
281
     0
  0
CLASS
  1
PARAMSCOPE
  2
AcAdParamScope
  3
DesignerServices
 90
        0
280
     0
281
     0
  0
CLASS
  1
NAMEDAPPL
  2
AcAdNamedAppl
  3
DesignerServices
 90
        0
280
     0
281
     0
  0
CLASS
  1
AMDTDMMENUSTATE
  2
AmdtDmMenuState
  3
AcMechDwgViewMgmt
 90
        0
280
     0
281
     0
  0
CLASS
  1
AMDTAMMENUSTATE
  2
AmdtAmMenuState
  3
DesignerAssemblies
 90
        0
280
     0
281
     0
  0
CLASS
  1
ACAMPROJECT
  2
AcAmProject
  3
DesignerAssemblies
 90
        0
280
     0
281
     0
  0
CLASS
  1
ACAMGRCOMPDEF
  2
AcAmGrCompDef
  3
DesignerAssemblies
 90
        0
280
     0
281
     0
  0
CLASS
  1
ACCMCONTEXT
  2
AcCmContext
  3
DesignerAssemblies
 90
        0
280
     0
281
     0
  0
CLASS
  1
ACAMCOMPDEF
  2
AcAmCompDef
  3
DesignerAssemblies
 90
        0
280
     0
281
     0
  0
CLASS
  1
ACAMCOMPDEFMGR
  2
AcAmCompDefMgr
  3
DesignerAssemblies
 90
        0
280
     0
281
     0
  0
CLASS
  1
AMCONTEXTMGR
  2
AcAmContextMgr
  3
DesignerAssemblies
 90
        0
280
     0
281
     0
  0
CLASS
  1
ACAMCONTEXTMODELER
  2
AcAmContextModeler
  3
DesignerAssemblies
 90
        0
280
     0
281
     0
  0
CLASS
  1
ACMDATADICTIONARY
  2
AcmDataDictionary
  3
"AcmSymBB|Product Description: AutoCAD Mechanical|Company: Autodesk"
 90
        0
280
     0
281
     0
  0
CLASS
  1
CATALOGSTATE
  2
AcAmCatalogState
  3
DesignerAssemblies
 90
        0
280
     0
281
     0
  0
CLASS
  1
ACAMGRCOMPDEFSET
  2
AcAmGrCompDefSet
  3
DesignerAssemblies
 90
        0
280
     0
281
     0
  0
CLASS
  1
AMDTBROWSERDBTAB
  2
AmdtBrowserDbTab
  3
McadcomServices
 90
        0
280
     0
281
     0
  0
CLASS
  1
CBROWSERAPPOBJECT
  2
CBrowserAppObject
  3
McadcomServices
 90
        0
280
     0
281
     0
  0
CLASS
  1
DM_PLACEHOLDER
  2
AcDmSelsetPlaceholder
  3
AcMechDwgViewMgmt
 90
        0
280
     0
281
     0
  0
CLASS
  1
ACMSTANDARDISO
  2
AcmStandardISO
  3
"Amdt_StdImp|Product Description: AutoCAD Mechanical|Company: Autodesk"
 90
        0
280
     0
281
     0
  0
CLASS
  1
AMGOBJPROPCFG
  2
AmgObjPropCfg
  3
"AmgLay|Product Description: AutoCAD Mechanical|Company: Autodesk"
 90
        1
280
     0
281
     0
  0
CLASS
  1
AMDTEDGESTANDARDISO13715
  2
AmdtEdgeStdISO13715
  3
"Amdt_StdImp|Product Description: AutoCAD Mechanical|Company: Autodesk"
 90
        0
280
     0
281
     0
  0
CLASS
  1
ACMSURFSTANDARDISO
  2
AcmSurfTextStdISO
  3
"Amdt_StdImp|Product Description: AutoCAD Mechanical|Company: Autodesk"
 90
        0
280
     0
281
     0
  0
CLASS
  1
ACMFCFSTANDARDISO
  2
AcmFCFStdISO
  3
"Amdt_StdImp|Product Description: AutoCAD Mechanical|Company: Autodesk"
 90
        0
280
     0
281
     0
  0
CLASS
  1
ACMWELDSTANDARDISO
  2
AcmWeldingStdISO
  3
"Amdt_StdImp|Product Description: AutoCAD Mechanical|Company: Autodesk"
 90
        0
280
     0
281
     0
  0
CLASS
  1
ACMIDSTANDARDISO
  2
AcmIdStdISO
  3
"Amdt_StdImp|Product Description: AutoCAD Mechanical|Company: Autodesk"
 90
        0
280
     0
281
     0
  0
CLASS
  1
ACMDATUMSTANDARDISO
  2
AcmDatumStdISO
  3
"Amdt_StdImp|Product Description: AutoCAD Mechanical|Company: Autodesk"
 90
        0
280
     0
281
     0
  0
CLASS
  1
ACMBOMSTANDARDISO
  2
AcmBOMStdISO
  3
"Amdt_StdImp|Product Description: AutoCAD Mechanical|Company: Autodesk"
 90
        0
280
     0
281
     0
  0
CLASS
  1
ACMDETAILSTANDARDISO
  2
AmdtDetailSymStdISO
  3
"Amdt_StdImp|Product Description: AutoCAD Mechanical|Company: Autodesk"
 90
        0
280
     0
281
     0
  0
CLASS
  1
ACMSECTIONSTANDARDISO
  2
AmdtSectionSymStdISO
  3
"Amdt_StdImp|Product Description: AutoCAD Mechanical|Company: Autodesk"
 90
        0
280
     0
281
     0
  0
CLASS
  1
ACMCENTERLINESTANDARDISO
  2
AmdtCenterLineStdISO
  3
"Amdt_StdImp|Product Description: AutoCAD Mechanical|Company: Autodesk"
 90
        0
280
     0
281
     0
  0
CLASS
  1
ACMTHREADLINESTANDARDISO
  2
AmdtThreadLineStdISO
  3
"Amdt_StdImp|Product Description: AutoCAD Mechanical|Company: Autodesk"
 90
        0
280
     0
281
     0
  0
CLASS
  1
ACMNOTESTANDARDISO
  2
AmdtNoteStdISO
  3
"Amdt_StdImp|Product Description: AutoCAD Mechanical|Company: Autodesk"
 90
        0
280
     0
281
     0
  0
CLASS
  1
ACMTAPERSTANDARDISO
  2
AcmTaperStdISO
  3
"Amdt_StdImp|Product Description: AutoCAD Mechanical|Company: Autodesk"
 90
        0
280
     0
281
     0
  0
CLASS
  1
AMDTNOTETEMPLATEDB
  2
AmdtNoteTemplateDB
  3
AMDT_STDIMP_MODULE_NAME
 90
        0
280
     0
281
     0
  0
CLASS
  1
ACAMGLAYSTD
  2
AcAmgLayStd
  3
"AmgLay|Product Description: AutoCAD Mechanical|Company: Autodesk"
 90
        0
280
     0
281
     0
  0
CLASS
  1
ACAMGDIMSTD
  2
AcAmgDimStd
  3
"AmgDim|Product Description: AutoCAD Mechanical|Company: Autodesk"
 90
        0
280
     0
281
     0
  0
CLASS
  1
ACAMGHOLECHARTSTDISO
  2
AcAmgHoleChartStdISO
  3
ACMSYMBB_MODULE_NAME
 90
        0
280
     0
281
     0
  0
CLASS
  1
ACAMGTITLESTD
  2
AcAmgTitleStd
  3
"AmgTitle|Product Description: AutoCAD Mechanical|Company: Autodesk"
 90
        0
280
     0
281
     0
  0
CLASS
  1
ACAMGFILTERDAT
  2
AcAmgFilterDat
  3
"AcadM|Product Description: AutoCAD Mechanical|Company: Autodesk"
 90
    32768
280
     0
281
     0
  0
CLASS
  1
DICTIONARYVAR
  2
AcDbDictionaryVar
  3
ObjectDBX Classes
 90
        0
280
     0
281
     0
  0
CLASS
  1
SORTENTSTABLE
  2
AcDbSortentsTable
  3
ObjectDBX Classes
 90
        0
280
     0
281
     0
  0
CLASS
  1
ACDBPLACEHOLDER
  2
AcDbPlaceHolder
  3
ObjectDBX Classes
 90
        0
280
     0
281
     0
  0
CLASS
  1
LAYOUT
  2
AcDbLayout
  3
ObjectDBX Classes
 90
        0
280
     0
281
     0
  0
ENDSEC
  0
SECTION
  2
TABLES
  0
TABLE
  2
VPORT
  5
8
102
{ACAD_XDICTIONARY
360
1442
102
}
330
0
100
AcDbSymbolTable
 70
     1
  0
VPORT
  5
28
330
8
100
AcDbSymbolTableRecord
100
AcDbViewportTableRecord
  2
*Active
 70
     0
 10
0.0
 20
0.0
 11
1.0
 21
1.0
 12
213.7889391354903
 22
306.093126620621
 13
0.0
 23
0.0
 14
10.0
 24
10.0
 15
10.0
 25
10.0
 16
0.0
 26
0.0
 36
1.0
 17
0.0
 27
0.0
 37
0.0
 40
619.5870674876593
 41
2.255020080321285
 42
50.0
 43
0.0
 44
0.0
 50
0.0
 51
0.0
 71
     0
 72
  1000
 73
     1
 74
     3
 75
     0
 76
     0
 77
     0
 78
     0
281
     0
 65
     0
110
0.0
120
0.0
130
0.0
111
1.0
121
0.0
131
0.0
112
0.0
122
1.0
132
0.0
 79
     0
146
0.0
  0
ENDTAB
  0
TABLE
  2
LTYPE
  5
5
330
0
100
AcDbSymbolTable
 70
    15
  0
LTYPE
  5
29
330
5
100
AcDbSymbolTableRecord
100
AcDbLinetypeTableRecord
  2
ByBlock
 70
     0
  3

 72
    65
 73
     0
 40
0.0
  0
LTYPE
  5
2A
330
5
100
AcDbSymbolTableRecord
100
AcDbLinetypeTableRecord
  2
ByLayer
 70
     0
  3

 72
    65
 73
     0
 40
0.0
  0
LTYPE
  5
2B
330
5
100
AcDbSymbolTableRecord
100
AcDbLinetypeTableRecord
  2
Continuous
 70
     0
  3
Solid line
 72
    65
 73
     0
 40
0.0
  0
LTYPE
  5
76
330
5
100
AcDbSymbolTableRecord
100
AcDbLinetypeTableRecord
  2
HIDDEN
 70
     0
  3
Hidden __ __ __ __ __ __ __ __ __ __ __ __ __ _
 72
    65
 73
     2
 40
9.524999999999998
 49
6.349999999999999
 74
     0
 49
-3.174999999999999
 74
     0
  0
LTYPE
  5
77
330
5
100
AcDbSymbolTableRecord
100
AcDbLinetypeTableRecord
  2
PHANTOM2
 70
     0
  3
Phantom (.5x) ___ _ _ ___ _ _ ___ _ _ ___ _ _
 72
    65
 73
     6
 40
31.75
 49
15.875
 74
     0
 49
-3.174999999999999
 74
     0
 49
3.174999999999999
 74
     0
 49
-3.174999999999999
 74
     0
 49
3.174999999999999
 74
     0
 49
-3.174999999999999
 74
     0
  0
LTYPE
  5
78
330
5
100
AcDbSymbolTableRecord
100
AcDbLinetypeTableRecord
  2
CENTER
 70
     0
  3
Center ____ _ ____ _ ____ _ ____ _ ____ _ ____
 72
    65
 73
     4
 40
50.8
 49
31.75
 74
     0
 49
-6.349999999999999
 74
     0
 49
6.349999999999999
 74
     0
 49
-6.349999999999999
 74
     0
  0
LTYPE
  5
AD
330
5
100
AcDbSymbolTableRecord
100
AcDbLinetypeTableRecord
  2
AM_ISO02W050
 70
     0
  3
__ __ __ __ __ __ __ __ __ __ __ __ __ __ __
 72
    65
 73
     2
 40
7.5
 49
6.0
 74
     0
 49
-1.5
 74
     0
  0
LTYPE
  5
AE
330
5
100
AcDbSymbolTableRecord
100
AcDbLinetypeTableRecord
  2
AM_ISO08W050
 70
     0
  3
____ . ____ . ____ . ____ . ____ . ____ . ____
 72
    65
 73
     4
 40
18.0
 49
12.0
 74
     0
 49
-1.5
 74
     0
 49
3.0
 74
     0
 49
-1.5
 74
     0
  0
LTYPE
  5
AF
330
5
100
AcDbSymbolTableRecord
100
AcDbLinetypeTableRecord
  2
AM_ISO09W050
 70
     0
  3
_____ . . _____ . . _____ . . ____ .. ____
 72
    65
 73
     6
 40
22.5
 49
12.0
 74
     0
 49
-1.5
 74
     0
 49
3.0
 74
     0
 49
-1.5
 74
     0
 49
3.0
 74
     0
 49
-1.5
 74
     0
  0
LTYPE
  5
B0
330
5
100
AcDbSymbolTableRecord
100
AcDbLinetypeTableRecord
  2
Amconstr
 70
     0
  3
_______________________
 72
    65
 73
     2
 40
9999.0
 49
9999.0
 74
     0
 49
0.0
 74
     0
  0
LTYPE
  5
B1
330
5
100
AcDbSymbolTableRecord
100
AcDbLinetypeTableRecord
  2
AM_ISO08W050x2
 70
     0
  3
__ . __ . __ . __ . __ . __
 72
    65
 73
     4
 40
9.0
 49
6.0
 74
     0
 49
-0.75
 74
     0
 49
1.5
 74
     0
 49
-0.75
 74
     0
  0
LTYPE
  5
B2
330
5
100
AcDbSymbolTableRecord
100
AcDbLinetypeTableRecord
  2
AM_ISO02W050x2
 70
     0
  3
 _ _ _ _ _ _ _ _ _ _ _ _
 72
    65
 73
     2
 40
3.75
 49
3.0
 74
     0
 49
-0.75
 74
     0
  0
LTYPE
  5
B5
330
5
100
AcDbSymbolTableRecord
100
AcDbLinetypeTableRecord
  2
Amzigzag
 70
     0
  3
/\/-/\/-/\/-/\/-/\/-/\/
 72
    65
 73
     2
 40
11.0001
 49
0.0001
 74
     4
 75
   136
340
B4
 46
0.04
 50
0.0
 44
0.0
 45
0.0
 49
-11.0
 74
     0
  0
LTYPE
  5
C5
330
5
100
AcDbSymbolTableRecord
100
AcDbLinetypeTableRecord
  2
ACISOWELD
 70
     0
  3
_ _ _ _ _
 72
    65
 73
     2
 40
2.0
 49
2.0
 74
     0
 49
-1.0
 74
     0
  0
LTYPE
  5
C6
330
5
100
AcDbSymbolTableRecord
100
AcDbLinetypeTableRecord
  2
ACISOTGB
 70
     0
  3
__ . . __ . .
 72
    65
 73
     6
 40
9.0
 49
4.0
 74
     0
 49
-1.0
 74
     0
 49
1.0
 74
     0
 49
-1.0
 74
     0
 49
1.0
 74
     0
 49
-1.0
 74
     0
  0
LTYPE
  5
C7
330
5
100
AcDbSymbolTableRecord
100
AcDbLinetypeTableRecord
  2
ACISOTGL
 70
     0
  3
_ _ _ _ _
 72
    65
 73
     2
 40
3.0
 49
2.0
 74
     0
 49
-1.0
 74
     0
  0
ENDTAB
  0
TABLE
  2
LAYER
  5
2
102
{ACAD_XDICTIONARY
360
4FB
102
}
330
0
100
AcDbSymbolTable
 70
    17
  0
LAYER
  5
25
330
2
100
AcDbSymbolTableRecord
100
AcDbLayerTableRecord
  2
0
 70
     0
 62
     7
  6
Continuous
370
    -3
390
F
  0
LAYER
  5
4D6
330
2
100
AcDbSymbolTableRecord
100
AcDbLayerTableRecord
  2
5C
 70
     0
 62
     7
  6
Continuous
370
    -3
390
F
  0
LAYER
  5
4D8
330
2
100
AcDbSymbolTableRecord
100
AcDbLayerTableRecord
  2
Defpoints
 70
     0
 62
     7
  6
Continuous
290
     0
370
    -3
390
F
  0
LAYER
  5
4DC
330
2
100
AcDbSymbolTableRecord
100
AcDbLayerTableRecord
  2
位置合わせ
 70
     0
 62
     5
  6
Continuous
290
     0
370
    -3
390
F
1001
AcAecLayerStandard
1000

1000

  0
LAYER
  5
4DD
330
2
100
AcDbSymbolTableRecord
100
AcDbLayerTableRecord
  2
5-文字
 70
     0
 62
     4
  6
Continuous
370
    -3
390
F
  0
LAYER
  5
4E0
330
2
100
AcDbSymbolTableRecord
100
AcDbLayerTableRecord
  2
型材
 70
     0
 62
     3
  6
Continuous
370
    -3
390
F
1001
AcAecLayerStandard
1000

1000

  0
LAYER
  5
4E1
330
2
100
AcDbSymbolTableRecord
100
AcDbLayerTableRecord
  2
細線
 70
     0
 62
     8
  6
Continuous
370
    -3
390
F
1001
AcAecLayerStandard
1000

1000

  0
LAYER
  5
16E2
330
2
100
AcDbSymbolTableRecord
100
AcDbLayerTableRecord
  2
ページ
 70
     0
 62
     4
  6
Continuous
370
    -3
390
F
1001
AcAecLayerStandard
1000

1000

  0
ENDTAB
  0
TABLE
  2
STYLE
  5
3
330
0
100
AcDbSymbolTable
 70
     6
  0
STYLE
  5
26
330
3
100
AcDbSymbolTableRecord
100
AcDbTextStyleTableRecord
  2
Standard
 70
     0
 40
0.0
 41
1.0
 50
0.0
 71
     0
 42
2.5
  3
txt
  4

  0
STYLE
  5
B4
330
3
100
AcDbSymbolTableRecord
100
AcDbTextStyleTableRecord
  2

 70
     1
 40
0.0
 41
1.0
 50
0.0
 71
     0
 42
2.5
  3
genltshp.shx
  4

  0
STYLE
  5
B6
330
3
100
AcDbSymbolTableRecord
100
AcDbTextStyleTableRecord
  2
ACISOTS
 70
     0
 40
1.0
 41
1.0
 50
0.0
 71
     0
 42
2.5
  3
isocp.shx
  4
extfont.shx
  0
STYLE
  5
C4
330
3
100
AcDbSymbolTableRecord
100
AcDbTextStyleTableRecord
  2
ACISOGDT
 70
     0
 40
0.0
 41
1.0
 50
0.0
 71
     0
 42
2.5
  3
amgdt.shx
  4

  0
STYLE
  5
4E6
330
3
100
AcDbSymbolTableRecord
100
AcDbTextStyleTableRecord
  2
ｺﾞｼｯｸ
 70
     0
 40
0.0
 41
1.0
 50
0.0
 71
     0
 42
4.0
  3
MS PGothic.ttf
  4

1001
ACAD
1000
MS PGothic
1071
    32818
  0
ENDTAB
  0
TABLE
  2
VIEW
  5
6
330
0
100
AcDbSymbolTable
 70
     0
  0
ENDTAB
  0
TABLE
  2
UCS
  5
7
330
0
100
AcDbSymbolTable
 70
     0
  0
ENDTAB
  0
TABLE
  2
APPID
  5
9
330
0
100
AcDbSymbolTable
 70
    24
  0
APPID
  5
27
330
9
100
AcDbSymbolTableRecord
100
AcDbRegAppTableRecord
  2
ACAD
 70
     0
  0
APPID
  5
47
330
9
100
AcDbSymbolTableRecord
100
AcDbRegAppTableRecord
  2
MCAD_NO_VIS
 70
     0
  0
APPID
  5
48
330
9
100
AcDbSymbolTableRecord
100
AcDbRegAppTableRecord
  2
ACAD_TEMP_GRAPHIC
 70
     0
  0
APPID
  5
7A
330
9
100
AcDbSymbolTableRecord
100
AcDbRegAppTableRecord
  2
AD_DRAW
 70
     0
  0
APPID
  5
7D
330
9
100
AcDbSymbolTableRecord
100
AcDbRegAppTableRecord
  2
ACATTRIBSERVICES
 70
     0
  0
APPID
  5
9E
330
9
100
AcDbSymbolTableRecord
100
AcDbRegAppTableRecord
  2
DESIGNERASSEMBLIES
 70
     0
  0
APPID
  5
A4
330
9
100
AcDbSymbolTableRecord
100
AcDbRegAppTableRecord
  2
ACADM_DIM_EDIT
 70
     0
  0
APPID
  5
A5
330
9
100
AcDbSymbolTableRecord
100
AcDbRegAppTableRecord
  2
AMDT_DM_ADJ
 70
     0
  0
APPID
  5
4ED
330
9
100
AcDbSymbolTableRecord
100
AcDbRegAppTableRecord
  2
GENIUS_GENODEF_13
 70
     0
  0
APPID
  5
4EE
330
9
100
AcDbSymbolTableRecord
100
AcDbRegAppTableRecord
  2
GENIUS_GENOREF_13
 70
     0
  0
APPID
  5
4EF
330
9
100
AcDbSymbolTableRecord
100
AcDbRegAppTableRecord
  2
GENIUS_GENOBJ-N-CEN_13
 70
     0
  0
APPID
  5
4F0
330
9
100
AcDbSymbolTableRecord
100
AcDbRegAppTableRecord
  2
GENIUS_GENOENT_13
 70
     0
  0
APPID
  5
4F1
330
9
100
AcDbSymbolTableRecord
100
AcDbRegAppTableRecord
  2
GENIUS_GENOLIS_13
 70
     0
  0
APPID
  5
4F2
330
9
100
AcDbSymbolTableRecord
100
AcDbRegAppTableRecord
  2
GENIUS_GENREC_14
 70
     0
  0
APPID
  5
4F3
330
9
100
AcDbSymbolTableRecord
100
AcDbRegAppTableRecord
  2
GENIUS_GENOBJ-N-REC_13
 70
     0
  0
APPID
  5
4F4
330
9
100
AcDbSymbolTableRecord
100
AcDbRegAppTableRecord
  2
GENIUS_GENOBJ-N-FIL_13
 70
     0
  0
APPID
  5
4F5
330
9
100
AcDbSymbolTableRecord
100
AcDbRegAppTableRecord
  2
GENIUS_GENCEN_19
 70
     0
  0
APPID
  5
4F6
330
9
100
AcDbSymbolTableRecord
100
AcDbRegAppTableRecord
  2
ACAD_PSEXT
 70
     0
  0
APPID
  5
4F7
330
9
100
AcDbSymbolTableRecord
100
AcDbRegAppTableRecord
  2
GENIUS_GENOBJ-N-CRS_13
 70
     0
  0
APPID
  5
4F8
330
9
100
AcDbSymbolTableRecord
100
AcDbRegAppTableRecord
  2
GENIUS_GENOBJ-N-HTC_13
 70
     0
  0
APPID
  5
4F9
330
9
100
AcDbSymbolTableRecord
100
AcDbRegAppTableRecord
  2
GENIUS_GENHATCH_13
 70
     0
  0
APPID
  5
4FA
330
9
100
AcDbSymbolTableRecord
100
AcDbRegAppTableRecord
  2
AcAecLayerStandard
 70
     0
  0
APPID
  5
1454
330
9
100
AcDbSymbolTableRecord
100
AcDbRegAppTableRecord
  2
ACAD_DSTYLE_DIMJOGGED_JOGANGLE_SYMBOL
 70
     0
  0
APPID
  5
1455
330
9
100
AcDbSymbolTableRecord
100
AcDbRegAppTableRecord
  2
ACAD_DSTYLE_DIMARC_LENGTH_SYMBOL
 70
     0
  0
ENDTAB
  0
TABLE
  2
DIMSTYLE
  5
A
330
0
100
AcDbSymbolTable
 70
    14
100
AcDbDimStyleTable
 71
     1
340
4E7
  0
DIMSTYLE
105
D3
330
A
100
AcDbSymbolTableRecord
100
AcDbDimStyleTableRecord
  2
AM_ISO
 70
     0
  4
"
 41
2.5
 42
1.0
 43
10.0
 44
1.0
 47
0.1
 48
0.1
 73
     0
 74
     0
 77
     1
 78
     8
 79
     2
140
3.5
141
0.0
143
0.0393701
146
0.71
147
1.5
172
     1
176
   256
177
   256
178
     2
271
     2
272
     3
274
     4
283
     0
284
     8
340
26
371
    -1
372
    -1
1001
ACAD_DSTYLE_DIMARC_LENGTH_SYMBOL
1070
   379
1070
     1
  0
DIMSTYLE
105
D4
330
A
100
AcDbSymbolTableRecord
100
AcDbDimStyleTableRecord
  2
AM_ISO$3
 70
     0
  4
"
 41
2.5
 42
1.0
 43
10.0
 44
1.0
 47
0.1
 48
0.1
 73
     0
 77
     1
 78
     8
 79
     2
140
3.5
141
0.0
143
0.0393701
146
0.71
147
1.5
176
   256
177
   256
178
     2
271
     2
272
     3
274
     4
283
     0
284
     8
288
     1
289
     0
340
26
371
    -1
372
    -1
1001
ACAD_DSTYLE_DIMARC_LENGTH_SYMBOL
1070
   379
1070
     1
  0
DIMSTYLE
105
D5
330
A
100
AcDbSymbolTableRecord
100
AcDbDimStyleTableRecord
  2
AM_ISO$4
 70
     0
  4
"
 41
2.5
 42
1.0
 43
10.0
 44
1.0
 47
0.1
 48
0.1
 73
     0
 77
     1
 78
     8
 79
     2
140
3.5
141
0.0
143
0.0393701
146
0.71
147
1.5
176
   256
177
   256
178
     2
271
     2
272
     3
274
     4
283
     0
284
     8
288
     1
289
     0
340
26
371
    -1
372
    -1
1001
ACAD_DSTYLE_DIMARC_LENGTH_SYMBOL
1070
   379
1070
     1
  0
DIMSTYLE
105
D6
330
A
100
AcDbSymbolTableRecord
100
AcDbDimStyleTableRecord
  2
AM_ISO$6
 70
     0
  4
"
 41
2.5
 42
1.0
 43
10.0
 44
1.0
 47
0.1
 48
0.1
 73
     0
 74
     0
 78
     8
 79
     2
140
3.5
141
0.0
143
0.0393701
146
0.71
147
1.5
172
     1
176
   256
177
   256
178
     2
271
     2
272
     3
274
     4
283
     0
284
     8
340
26
371
    -1
372
    -1
1001
ACAD_DSTYLE_DIMARC_LENGTH_SYMBOL
1070
   379
1070
     1
  0
DIMSTYLE
105
D7
330
A
100
AcDbSymbolTableRecord
100
AcDbDimStyleTableRecord
  2
AM_ISO$7
 70
     0
  4
"
 41
2.5
 42
1.0
 43
10.0
 44
1.0
 47
0.1
 48
0.1
 73
     0
 74
     0
 77
     1
 78
     8
 79
     2
140
5.0
141
0.0
143
0.0393701
146
0.71
147
1.5
172
     1
176
   256
177
   256
178
     2
271
     2
272
     3
274
     4
283
     0
284
     8
340
26
371
    -1
372
    -1
1001
ACAD_DSTYLE_DIMARC_LENGTH_SYMBOL
1070
   379
1070
     1
  0
DIMSTYLE
105
D8
330
A
100
AcDbSymbolTableRecord
100
AcDbDimStyleTableRecord
  2
AM_ISO$SF
 70
     0
  4
"
 41
2.5
 42
1.0
 43
10.0
 44
1.0
 47
0.1
 48
0.1
 73
     0
 74
     0
 75
     1
 76
     1
 77
     1
 78
     8
 79
     2
140
3.5
141
0.0
143
0.0393701
146
0.71
147
1.5
172
     1
176
   256
177
   256
178
     2
271
     2
272
     3
274
     4
283
     0
284
     8
340
26
371
    -1
372
    -1
1001
ACAD_DSTYLE_DIMARC_LENGTH_SYMBOL
1070
   379
1070
     1
  0
DIMSTYLE
105
DD
330
A
100
AcDbSymbolTableRecord
100
AcDbDimStyleTableRecord
  2
AM_ISO$SH
 70
     0
  4
"
 41
2.5
 42
1.0
 43
10.0
 44
1.0
 47
0.1
 48
0.1
 73
     0
 74
     0
 75
     1
 76
     1
 77
     1
 78
     8
 79
     2
140
3.5
141
0.0
143
0.0393701
144
2.0
146
0.71
147
1.5
172
     1
173
     1
176
   256
177
   256
178
     2
271
     2
272
     3
274
     4
283
     0
284
     8
340
26
343
D9
371
    -1
372
    -1
1001
ACAD_DSTYLE_DIMARC_LENGTH_SYMBOL
1070
   379
1070
     1
  0
DIMSTYLE
105
4E7
102
{ACAD_REACTORS
330
177F
330
1780
330
1781
330
1782
330
1783
330
1784
330
1785
330
1786
330
17B6
330
17B8
330
17B9
330
17BA
330
17C1
330
17C2
330
17C3
330
17C4
330
17C5
330
17D9
330
17DA
330
17E2
330
17E3
330
17E4
330
17E5
330
17E6
330
17EE
330
17F6
330
17FB
102
}
330
A
100
AcDbSymbolTableRecord
100
AcDbDimStyleTableRecord
  2
OSAMARI_標準
 70
     0
  4
"
 41
1.5
 42
3.0
 43
10.0
 44
1.0
 47
0.1
 48
0.1
 73
     0
 74
     0
 77
     3
 78
     8
 79
     2
140
5.0
141
0.0
143
0.0393701
146
0.71
147
1.5
172
     1
176
   143
177
   143
178
     7
179
     1
271
     2
272
     2
283
     0
284
     8
340
4E6
341
10B
342
106
371
    -1
372
    -1
  0
ENDTAB
  0
TABLE
  2
BLOCK_RECORD
  5
1
330
0
100
AcDbSymbolTable
 70
   209
  0
BLOCK_RECORD
  5
37
330
1
100
AcDbSymbolTableRecord
100
AcDbBlockTableRecord
  2
*Model_Space
340
3A
  0
BLOCK_RECORD
  5
33
330
1
100
AcDbSymbolTableRecord
100
AcDbBlockTableRecord
  2
*Paper_Space
340
36
  0
BLOCK_RECORD
  5
3B
330
1
100
AcDbSymbolTableRecord
100
AcDbBlockTableRecord
  2
*Paper_Space0
340
3E
  0
BLOCK_RECORD
  5
D9
330
1
100
AcDbSymbolTableRecord
100
AcDbBlockTableRecord
  2
GENAXEH
340
0
  0
BLOCK_RECORD
  5
106
330
1
100
AcDbSymbolTableRecord
100
AcDbBlockTableRecord
  2
_DOT
340
0
102
{BLKREFS
331
256
331
257
331
262
331
263
331
26E
331
26F
331
27A
331
27B
331
286
331
287
331
292
331
293
331
29E
331
29F
331
2AA
331
2AB
331
2B6
331
2B7
331
2C2
331
2C3
331
2CE
331
2CF
331
2DA
331
2DB
331
2E8
331
2E9
331
2F4
331
2F5
331
300
331
301
331
30C
331
30D
331
49E
331
49F
331
4AA
331
4AB
331
4B6
331
4B7
331
4C2
331
4C3
331
4CE
331
4CF
331
318
331
319
331
324
331
325
331
332
331
333
331
33E
331
33F
331
34A
331
34B
331
356
331
357
331
362
331
363
331
370
331
371
331
37C
331
37D
331
388
331
389
331
394
331
395
331
3A0
331
3A1
331
3AC
331
3AD
331
3B8
331
3B9
331
3C4
331
3C5
331
3D0
331
3D1
331
3DC
331
3DD
331
3EA
331
3EB
331
3F6
331
3F7
331
402
331
403
331
41A
331
41B
331
426
331
427
331
432
331
433
331
43E
331
43F
331
40E
331
40F
331
44A
331
44B
331
456
331
457
331
462
331
463
331
486
331
487
331
46E
331
46F
331
47A
331
47B
331
492
331
493
331
19C
331
19D
331
1A8
331
1A9
331
1B6
331
1B7
331
1C2
331
1C3
331
1CE
331
1CF
331
1DA
331
1DB
331
1E6
331
1E7
331
1F2
331
1F3
331
1FE
331
1FF
331
20A
331
20B
331
216
331
217
331
222
331
223
331
182
331
183
331
18E
331
18F
331
230
331
231
331
23E
331
23F
331
24A
331
24B
331
11C0
331
11C1
331
11C9
331
11CA
331
11D4
331
11D5
331
11DD
331
11DE
331
11E6
331
11E7
331
11EF
331
11F0
331
11F8
331
11F9
331
1201
331
1202
331
120A
331
120B
331
1213
331
1214
331
121C
331
121D
331
1225
331
1226
331
122E
331
122F
331
1237
331
1238
331
1242
331
1243
331
124D
331
124E
331
1256
331
1257
331
125F
331
1260
331
1268
331
1269
331
1271
331
1272
331
127A
331
127B
331
1283
331
1284
331
128C
331
128D
331
1295
331
1296
331
129E
331
129F
331
12A7
331
12A8
331
12B0
331
12B1
331
12B9
331
12BA
331
12C2
331
12C3
331
12CD
331
12CE
331
12D6
331
12D7
331
12DF
331
12E0
331
12E8
331
12E9
331
12F1
331
12F2
331
12FA
331
12FB
331
1305
331
1306
331
130E
331
130F
331
1317
331
1318
331
1320
331
1321
331
1329
331
132A
331
1334
331
1335
331
133D
331
133E
331
1346
331
1347
331
134F
331
1350
331
1358
331
1359
331
1361
331
1362
331
136A
331
136B
331
1373
331
1374
331
137C
331
137D
331
1385
331
1386
331
1390
331
1391
331
1399
331
139A
331
13A2
331
13A3
331
13AB
331
13AC
331
13B4
331
13B5
331
13BD
331
13BE
331
13C6
331
13C7
331
13CF
331
13D0
331
13D8
331
13D9
331
13E1
331
13E2
331
13EA
331
13EB
331
13F3
331
13F4
331
13FC
331
13FD
331
1405
331
1406
331
140E
331
140F
331
1417
331
1418
331
1420
331
1421
331
1429
331
142A
331
1432
331
1433
331
143B
331
143C
331
15A1
331
15A2
331
15AD
331
15AE
331
15B9
331
15BA
331
15C5
331
15C6
331
15D1
331
15D2
331
15DD
331
15DE
331
15E9
331
15EA
331
15F5
331
15F6
331
1601
331
1602
331
160D
331
160E
331
1619
331
161A
331
1625
331
1626
331
1631
331
1632
331
163D
331
163E
331
164B
331
164C
331
1657
331
1658
331
1663
331
1664
331
166F
331
1670
331
167B
331
167C
331
1687
331
1688
331
1693
331
1694
331
169F
331
16A0
331
16AB
331
16AC
331
16B7
331
16B8
331
175D
331
16C3
331
16C4
331
16CF
331
16D0
331
16DB
331
16DC
331
17EC
331
1945
331
1946
331
194E
331
194F
331
1957
331
1958
331
1960
331
1961
331
1969
331
196A
331
1972
331
1973
331
197B
331
197C
331
1984
331
1985
331
198D
331
198E
331
1996
331
1997
331
199F
331
19A0
331
19A8
331
19A9
331
19B1
331
19B2
331
19BA
331
19BB
331
19C5
331
19C6
331
19CE
331
19CF
331
19D7
331
19D8
331
19E0
331
19E1
331
19E9
331
19EA
331
19F2
331
19F3
331
19FB
331
19FC
331
1A04
331
1A05
331
1A0D
331
1A0E
331
1A16
331
1A17
331
1A1F
331
1A20
331
1A28
331
1A29
331
1A31
331
1A32
102
}
  0
BLOCK_RECORD
  5
10B
330
1
100
AcDbSymbolTableRecord
100
AcDbBlockTableRecord
  2
_Open30
340
0
  0
BLOCK_RECORD
  5
14FA
330
1
100
AcDbSymbolTableRecord
100
AcDbBlockTableRecord
  2
矢印1
340
0
310
2800000020000000200000000100080000000000000400000000000000000000000000000000000000000000000080000080000000808000800000008000800080800000C0C0C000C0DCC000F0CAA6000020400000206000002080000020A0000020C0000020E00000400000004020000040400000406000004080000040A0
310
000040C0000040E00000600000006020000060400000606000006080000060A0000060C0000060E00000800000008020000080400000806000008080000080A0000080C0000080E00000A0000000A0200000A0400000A0600000A0800000A0A00000A0C00000A0E00000C0000000C0200000C0400000C0600000C0800000C0
310
A00000C0C00000C0E00000E0000000E0200000E0400000E0600000E0800000E0A00000E0C00000E0E00040000000400020004000400040006000400080004000A0004000C0004000E00040200000402020004020400040206000402080004020A0004020C0004020E000404000004040200040404000404060004040800040
310
40A0004040C0004040E00040600000406020004060400040606000406080004060A0004060C0004060E00040800000408020004080400040806000408080004080A0004080C0004080E00040A0000040A0200040A0400040A0600040A0800040A0A00040A0C00040A0E00040C0000040C0200040C0400040C0600040C08000
310
40C0A00040C0C00040C0E00040E0000040E0200040E0400040E0600040E0800040E0A00040E0C00040E0E00080000000800020008000400080006000800080008000A0008000C0008000E00080200000802020008020400080206000802080008020A0008020C0008020E00080400000804020008040400080406000804080
310
008040A0008040C0008040E00080600000806020008060400080606000806080008060A0008060C0008060E00080800000808020008080400080806000808080008080A0008080C0008080E00080A0000080A0200080A0400080A0600080A0800080A0A00080A0C00080A0E00080C0000080C0200080C0400080C0600080C0
310
800080C0A00080C0C00080C0E00080E0000080E0200080E0400080E0600080E0800080E0A00080E0C00080E0E000C0000000C0002000C0004000C0006000C0008000C000A000C000C000C000E000C0200000C0202000C0204000C0206000C0208000C020A000C020C000C020E000C0400000C0402000C0404000C0406000C0
310
408000C040A000C040C000C040E000C0600000C0602000C0604000C0606000C0608000C060A000C060C000C060E000C0800000C0802000C0804000C0806000C0808000C080A000C080C000C080E000C0A00000C0A02000C0A04000C0A06000C0A08000C0A0A000C0A0C000C0A0E000C0C00000C0C02000C0C04000C0C06000
310
C0C08000C0C0A000F0FBFF00A4A0A000808080000000FF0000FF000000FFFF00FF000000FF00FF00FFFF0000FFFFFF0000000000000000000000000000000000000000000000000000000000000000000000000000000000000000000000000000000000000000000000000000000000000000000000000000000000000000
310
00000000000000000000000000000000000000000000000000000000000000000000000000000000000000000000000000000000000000000000000000000000000000000000000000000000000000000000000000000000000000000000000000000000000000000000000000000000000000000000000000000000000000
310
00000000000000000000000000000000000000000000000000000000000000000000000000000000000000000000000000000000000000000000000000000000000000000000000000000000000000000000000000000000000000000000000000000000000000000000000000000000000000000000000000000000000000
310
00000000000000000000000000000000000000000000000000000000000000000000000000000000000000000000000000000000F3F3F3F3F3F3F3F3F3F3F3F3F3F3F3F3F3F3F3F3F3F3F3F3F3F3F3F3F3F300000000F3F3F30000000000000000000000000000F30000000000000000000000000000000000F3F300000000
310
0000000000000000F300000000000000000000000000000000000000F3F3F3000000000000000000F300000000000000000000000000000000000000000000F3F3F3000000000000F300000000000000000000000000000000000000000000000000F3F300000000F300000000000000000000000000000000000000000000
310
0000000000F3F3F300F3000000000000000000000000000000000000000000000000000000000000F3F300000000000000000000000000000000000000000000000000000000000000000000000000000000000000000000000000000000000000000000000000000000000000000000000000000000000000000000000000
310
00000000000000000000000000000000000000000000000000000000000000000000000000000000000000000000000000000000000000000000000000000000000000000000000000000000000000000000000000000000000000000000000000000000000000000000000000000000000000000000000000000000000000
310
00000000000000000000000000000000000000000000000000000000000000000000000000000000000000000000000000000000000000000000000000000000000000000000000000000000000000000000000000000000000000000000000000000000000000000000000000000000000000000000000000000000000000
310
0000000000000000000000000000000000000000000000000000000000000000000000000000000000000000000000000000000000000000
102
{BLKREFS
331
1768
331
17F7
102
}
  0
BLOCK_RECORD
  5
1500
330
1
100
AcDbSymbolTableRecord
100
AcDbBlockTableRecord
  2
24G外枠
340
0
310
2800000020000000200000000100080000000000000400000000000000000000000000000000000000000000000080000080000000808000800000008000800080800000C0C0C000C0DCC000F0CAA6000020400000206000002080000020A0000020C0000020E00000400000004020000040400000406000004080000040A0
310
000040C0000040E00000600000006020000060400000606000006080000060A0000060C0000060E00000800000008020000080400000806000008080000080A0000080C0000080E00000A0000000A0200000A0400000A0600000A0800000A0A00000A0C00000A0E00000C0000000C0200000C0400000C0600000C0800000C0
310
A00000C0C00000C0E00000E0000000E0200000E0400000E0600000E0800000E0A00000E0C00000E0E00040000000400020004000400040006000400080004000A0004000C0004000E00040200000402020004020400040206000402080004020A0004020C0004020E000404000004040200040404000404060004040800040
310
40A0004040C0004040E00040600000406020004060400040606000406080004060A0004060C0004060E00040800000408020004080400040806000408080004080A0004080C0004080E00040A0000040A0200040A0400040A0600040A0800040A0A00040A0C00040A0E00040C0000040C0200040C0400040C0600040C08000
310
40C0A00040C0C00040C0E00040E0000040E0200040E0400040E0600040E0800040E0A00040E0C00040E0E00080000000800020008000400080006000800080008000A0008000C0008000E00080200000802020008020400080206000802080008020A0008020C0008020E00080400000804020008040400080406000804080
310
008040A0008040C0008040E00080600000806020008060400080606000806080008060A0008060C0008060E00080800000808020008080400080806000808080008080A0008080C0008080E00080A0000080A0200080A0400080A0600080A0800080A0A00080A0C00080A0E00080C0000080C0200080C0400080C0600080C0
310
800080C0A00080C0C00080C0E00080E0000080E0200080E0400080E0600080E0800080E0A00080E0C00080E0E000C0000000C0002000C0004000C0006000C0008000C000A000C000C000C000E000C0200000C0202000C0204000C0206000C0208000C020A000C020C000C020E000C0400000C0402000C0404000C0406000C0
310
408000C040A000C040C000C040E000C0600000C0602000C0604000C0606000C0608000C060A000C060C000C060E000C0800000C0802000C0804000C0806000C0808000C080A000C080C000C080E000C0A00000C0A02000C0A04000C0A06000C0A08000C0A0A000C0A0C000C0A0E000C0C00000C0C02000C0C04000C0C06000
310
C0C08000C0C0A000F0FBFF00A4A0A000808080000000FF0000FF000000FFFF00FF000000FF00FF00FFFF0000FFFFFF00000000000000000000000000000000000000000000000000000000000000000000000000000000000000000000000000000000FF000000000000000000000000000000000000000000000000000000
310
000000FFFFFF0000000000000000000000000000000000000000000000000000000000FFFF000000000000000000000000000000000000000000000000000000000000FFFF000000000000000000000000000000000000000000000000000000000000FFFF0000000000000000000000000000000000000000000000000000
310
00000000FFFF000000000000000000000000000000000000000000000000000000000000FFFF000000000000000000000000000000000000000000000000000000000000FFFF000000000000000000000000000000000000000000000000000000000000FFFF00000000000000000000000000000000000000000000000000
310
0000000000FFFF000000000000000000000000000000000000000000000000000000000000FFFFFFFFFF000000000000000000000000000000000000000000000000000000FFFFFFFFFFFF0000000000000000000000000000000000000000000000000000FFFF0000FF000000000000000000000000000000000000000000
310
000000000000FFFF00000000000000000000000000000000000000FFFF000000000000000000FFFF00000000000000000000000000000000000000FFFFFFFFFFFFFFFFFFFFFFFFFFFFFFFFFFFF0000000000000000000000000000FF00FFFFFFFFFFFFFFFFFFFFFFFFFFFF00FF0000000000000000000000000000FF00FF00
310
FFFFFF00000000FFFFFF00FF00FF0000000000000000000000000000FF0000FFFF00FF00000000FF00FFFF0000FF0000000000000000000000000000FFFFFF00FFFFFF00000000FFFFFF00FFFFFF0000000000000000000000000000FFFF00000000FF00000000FF00000000FFFF0000000000000000000000000000FFFF00
310
000000FF00000000FF00000000FFFF0000000000000000000000000000FF0000000000FF00000000FF0000000000FF0000000000000000000000000000000000000000FFFF0000FFFF0000000000000000000000000000000000000000000000000000FFFF0000FFFF00000000000000000000000000000000000000000000
310
00000000FF00000000FF0000000000000000000000000000000000000000000000000000FFFFFFFFFFFF0000000000000000000000000000000000000000000000000000FF00000000FF0000000000000000000000000000000000000000000000000000FF00000000FF000000000000000000000000000000000000000000
310
0000000000FF00000000FF000000000000000000000000000000000000000000000000000000000000000000000000000000000000000000
102
{BLKREFS
331
1728
331
1752
331
16EE
331
177D
331
17B7
331
17E1
102
}
1001
ACAD
1000
DesignCenter Data
1002
{
1070
     1
1070
     4
1002
}
  0
BLOCK_RECORD
  5
1568
330
1
100
AcDbSymbolTableRecord
100
AcDbBlockTableRecord
  2
24G羽根
340
0
310
2800000020000000200000000100080000000000000400000000000000000000000000000000000000000000000080000080000000808000800000008000800080800000C0C0C000C0DCC000F0CAA6000020400000206000002080000020A0000020C0000020E00000400000004020000040400000406000004080000040A0
310
000040C0000040E00000600000006020000060400000606000006080000060A0000060C0000060E00000800000008020000080400000806000008080000080A0000080C0000080E00000A0000000A0200000A0400000A0600000A0800000A0A00000A0C00000A0E00000C0000000C0200000C0400000C0600000C0800000C0
310
A00000C0C00000C0E00000E0000000E0200000E0400000E0600000E0800000E0A00000E0C00000E0E00040000000400020004000400040006000400080004000A0004000C0004000E00040200000402020004020400040206000402080004020A0004020C0004020E000404000004040200040404000404060004040800040
310
40A0004040C0004040E00040600000406020004060400040606000406080004060A0004060C0004060E00040800000408020004080400040806000408080004080A0004080C0004080E00040A0000040A0200040A0400040A0600040A0800040A0A00040A0C00040A0E00040C0000040C0200040C0400040C0600040C08000
310
40C0A00040C0C00040C0E00040E0000040E0200040E0400040E0600040E0800040E0A00040E0C00040E0E00080000000800020008000400080006000800080008000A0008000C0008000E00080200000802020008020400080206000802080008020A0008020C0008020E00080400000804020008040400080406000804080
310
008040A0008040C0008040E00080600000806020008060400080606000806080008060A0008060C0008060E00080800000808020008080400080806000808080008080A0008080C0008080E00080A0000080A0200080A0400080A0600080A0800080A0A00080A0C00080A0E00080C0000080C0200080C0400080C0600080C0
310
800080C0A00080C0C00080C0E00080E0000080E0200080E0400080E0600080E0800080E0A00080E0C00080E0E000C0000000C0002000C0004000C0006000C0008000C000A000C000C000C000E000C0200000C0202000C0204000C0206000C0208000C020A000C020C000C020E000C0400000C0402000C0404000C0406000C0
310
408000C040A000C040C000C040E000C0600000C0602000C0604000C0606000C0608000C060A000C060C000C060E000C0800000C0802000C0804000C0806000C0808000C080A000C080C000C080E000C0A00000C0A02000C0A04000C0A06000C0A08000C0A0A000C0A0C000C0A0E000C0C00000C0C02000C0C04000C0C06000
310
C0C08000C0C0A000F0FBFF00A4A0A000808080000000FF0000FF000000FFFF00FF000000FF00FF00FFFF0000FFFFFF0000000000000000000000000000000000000000000000000000000000000000000000000000000000000000000000000000000000000000000000000000000000000000000000000000000000000000
310
00000000000000000000000000000000000000000000000000000000000000000000000000000000000000000000000000000000000000000000000000000000000000000000000000000000000000000000000000000000000000000000000000000000000000000000000000000000000000000000000000000000000000
310
00000000000000000000000000000000000000000000000000000000000000000000000000000000000000000000000000000000000000000000000000000000000000000000000000000000000000000000000000000000000000000000000000000000000000000000000000000000000000000000000000000000000000
310
000000000000000000000000000000000000000000000000000000000000000000000000000000FFFFFFFFFFFFFFFFFFFFFF0000000000000000000000000000000000000000FF00FFFFFFFF00FFFFFFFFFF00000000000000000000000000000000000000FF00FF0000FF00FF000000000000000000000000000000000000
310
0000000000FF00FF0000FF00FF0000000000000000000000000000000000000000000000FFFFFF0000FF00FF0000000000000000000000000000000000000000000000FFFF000000FFFFFF00000000000000000000000000000000000000FF0000FFFFFF000000FFFF00000000000000000000000000000000000000FFFFFF
310
0000FF00000000FFFF00000000000000000000000000FFFFFFFFFFFFFF00FFFFFFFFFFFFFFFFFFFF0000000000000000000000000000FFFFFFFFFFFFFFFFFFFFFFFFFFFFFFFFFF0000000000000000000000000000000000000000000000000000000000000000000000000000000000000000000000000000000000000000
310
00000000000000000000000000000000000000000000000000000000000000000000000000000000000000000000000000000000000000000000000000000000000000000000000000000000000000000000000000000000000000000000000000000000000000000000000000000000000000000000000000000000000000
310
00000000000000000000000000000000000000000000000000000000000000000000000000000000000000000000000000000000000000000000000000000000000000000000000000000000000000000000000000000000000000000000000000000000000000000000000000000000000000000000000000000000000000
310
0000000000000000000000000000000000000000000000000000000000000000000000000000000000000000000000000000000000000000
102
{BLKREFS
331
16EF
331
16F8
331
1725
331
1726
331
177E
331
1787
331
17B4
331
17B5
102
}
1001
ACAD
1000
DesignCenter Data
1002
{
1070
     1
1070
     4
1002
}
  0
BLOCK_RECORD
  5
17FC
330
1
100
AcDbSymbolTableRecord
100
AcDbBlockTableRecord
  2
*D182
340
0
  0
BLOCK_RECORD
  5
1808
330
1
100
AcDbSymbolTableRecord
100
AcDbBlockTableRecord
  2
*D183
340
0
  0
BLOCK_RECORD
  5
1814
330
1
100
AcDbSymbolTableRecord
100
AcDbBlockTableRecord
  2
*D184
340
0
  0
BLOCK_RECORD
  5
1820
330
1
100
AcDbSymbolTableRecord
100
AcDbBlockTableRecord
  2
*D185
340
0
  0
BLOCK_RECORD
  5
182C
330
1
100
AcDbSymbolTableRecord
100
AcDbBlockTableRecord
  2
*D186
340
0
  0
BLOCK_RECORD
  5
1838
330
1
100
AcDbSymbolTableRecord
100
AcDbBlockTableRecord
  2
*D187
340
0
  0
BLOCK_RECORD
  5
1844
330
1
100
AcDbSymbolTableRecord
100
AcDbBlockTableRecord
  2
*D188
340
0
  0
BLOCK_RECORD
  5
1850
330
1
100
AcDbSymbolTableRecord
100
AcDbBlockTableRecord
  2
*D189
340
0
  0
BLOCK_RECORD
  5
185C
330
1
100
AcDbSymbolTableRecord
100
AcDbBlockTableRecord
  2
*D190
340
0
  0
BLOCK_RECORD
  5
1868
330
1
100
AcDbSymbolTableRecord
100
AcDbBlockTableRecord
  2
*D191
340
0
  0
BLOCK_RECORD
  5
1874
330
1
100
AcDbSymbolTableRecord
100
AcDbBlockTableRecord
  2
*D192
340
0
  0
BLOCK_RECORD
  5
1880
330
1
100
AcDbSymbolTableRecord
100
AcDbBlockTableRecord
  2
*D193
340
0
  0
BLOCK_RECORD
  5
188C
330
1
100
AcDbSymbolTableRecord
100
AcDbBlockTableRecord
  2
*D194
340
0
  0
BLOCK_RECORD
  5
1898
330
1
100
AcDbSymbolTableRecord
100
AcDbBlockTableRecord
  2
*D195
340
0
  0
BLOCK_RECORD
  5
18A4
330
1
100
AcDbSymbolTableRecord
100
AcDbBlockTableRecord
  2
*D196
340
0
  0
BLOCK_RECORD
  5
18B2
330
1
100
AcDbSymbolTableRecord
100
AcDbBlockTableRecord
  2
*D197
340
0
  0
BLOCK_RECORD
  5
18BE
330
1
100
AcDbSymbolTableRecord
100
AcDbBlockTableRecord
  2
*D198
340
0
  0
BLOCK_RECORD
  5
18CA
330
1
100
AcDbSymbolTableRecord
100
AcDbBlockTableRecord
  2
*D199
340
0
  0
BLOCK_RECORD
  5
18D6
330
1
100
AcDbSymbolTableRecord
100
AcDbBlockTableRecord
  2
*D200
340
0
  0
BLOCK_RECORD
  5
18E2
330
1
100
AcDbSymbolTableRecord
100
AcDbBlockTableRecord
  2
*D201
340
0
  0
BLOCK_RECORD
  5
18EE
330
1
100
AcDbSymbolTableRecord
100
AcDbBlockTableRecord
  2
*D202
340
0
  0
BLOCK_RECORD
  5
18FA
330
1
100
AcDbSymbolTableRecord
100
AcDbBlockTableRecord
  2
*D203
340
0
  0
BLOCK_RECORD
  5
1906
330
1
100
AcDbSymbolTableRecord
100
AcDbBlockTableRecord
  2
*D204
340
0
  0
BLOCK_RECORD
  5
1912
330
1
100
AcDbSymbolTableRecord
100
AcDbBlockTableRecord
  2
*D205
340
0
  0
BLOCK_RECORD
  5
191E
330
1
100
AcDbSymbolTableRecord
100
AcDbBlockTableRecord
  2
*D206
340
0
  0
BLOCK_RECORD
  5
192A
330
1
100
AcDbSymbolTableRecord
100
AcDbBlockTableRecord
  2
*D207
340
0
  0
BLOCK_RECORD
  5
1936
330
1
100
AcDbSymbolTableRecord
100
AcDbBlockTableRecord
  2
*D208
340
0
  0
ENDTAB
  0
ENDSEC
  0
SECTION
  2
BLOCKS
  0
BLOCK
  5
38
330
37
100
AcDbEntity
  8
0
100
AcDbBlockBegin
  2
*Model_Space
 70
     0
 10
0.0
 20
0.0
 30
0.0
  3
*Model_Space
  1

  0
ENDBLK
  5
39
330
37
100
AcDbEntity
  8
0
100
AcDbBlockEnd
  0
BLOCK
  5
34
330
33
100
AcDbEntity
 67
     1
  8
0
100
AcDbBlockBegin
  2
*Paper_Space
 70
     0
 10
0.0
 20
0.0
 30
0.0
  3
*Paper_Space
  1

  0
ENDBLK
  5
35
330
33
100
AcDbEntity
 67
     1
  8
0
100
AcDbBlockEnd
  0
BLOCK
  5
3C
330
3B
100
AcDbEntity
 67
     1
  8
0
100
AcDbBlockBegin
  2
*Paper_Space0
 70
     0
 10
0.0
 20
0.0
 30
0.0
  3
*Paper_Space0
  1

  0
ENDBLK
  5
3D
330
3B
100
AcDbEntity
 67
     1
  8
0
100
AcDbBlockEnd
  0
BLOCK
  5
DB
330
D9
100
AcDbEntity
  8
0
100
AcDbBlockBegin
  2
GENAXEH
 70
     0
 10
0.0
 20
0.0
 30
0.0
  3
GENAXEH
  1

  0
LINE
  5
DA
330
D9
100
AcDbEntity
  8
0
100
AcDbLine
 10
-1.0
 20
0.0
 30
0.0
 11
1.0
 21
0.0
 31
0.0
  0
ENDBLK
  5
DC
330
D9
100
AcDbEntity
  8
0
100
AcDbBlockEnd
  0
BLOCK
  5
107
330
106
100
AcDbEntity
  8
0
100
AcDbBlockBegin
  2
_DOT
 70
     0
 10
0.0
 20
0.0
 30
0.0
  3
_DOT
  1

  0
LWPOLYLINE
  5
108
330
106
100
AcDbEntity
  8
0
  6
ByBlock
 62
     0
100
AcDbPolyline
 90
        2
 70
     1
 43
0.5
 10
-0.25
 20
0.0
 42
1.0
 10
0.25
 20
0.0
 42
1.0
  0
LINE
  5
109
330
106
100
AcDbEntity
  8
0
  6
ByBlock
 62
     0
100
AcDbLine
 10
-0.5
 20
0.0
 30
0.0
 11
-1.0
 21
0.0
 31
0.0
  0
ENDBLK
  5
10A
330
106
100
AcDbEntity
  8
0
100
AcDbBlockEnd
  0
BLOCK
  5
10C
330
10B
100
AcDbEntity
  8
0
100
AcDbBlockBegin
  2
_Open30
 70
     0
 10
0.0
 20
0.0
 30
0.0
  3
_Open30
  1

  0
LINE
  5
10D
330
10B
100
AcDbEntity
  8
5C
 62
     0
370
    -2
100
AcDbLine
 10
-1.0
 20
0.26794919
 30
0.0
 11
0.0
 21
0.0
 31
0.0
  0
LINE
  5
10E
330
10B
100
AcDbEntity
  8
5C
 62
     0
370
    -2
100
AcDbLine
 10
0.0
 20
0.0
 30
0.0
 11
-1.0
 21
-0.26794919
 31
0.0
  0
LINE
  5
10F
330
10B
100
AcDbEntity
  8
5C
 62
     0
370
    -2
100
AcDbLine
 10
0.0
 20
0.0
 30
0.0
 11
-1.0
 21
0.0
 31
0.0
  0
ENDBLK
  5
110
330
10B
100
AcDbEntity
  8
0
100
AcDbBlockEnd
  0
BLOCK
  5
14FB
330
14FA
100
AcDbEntity
  8
0
100
AcDbBlockBegin
  2
矢印1
 70
     0
 10
0.0
 20
0.0
 30
0.0
  3
矢印1
  1

  0
LINE
  5
14FC
330
14FA
100
AcDbEntity
  8
0
 62
   143
100
AcDbLine
 10
0.0
 20
0.0
 30
0.0
 11
19.98325610467873
 21
0.0
 31
0.0
  0
LINE
  5
14FD
330
14FA
100
AcDbEntity
  8
0
 62
   143
100
AcDbLine
 10
0.0
 20
0.0
 30
0.0
 11
12.86431671819878
 21
4.68222836959751
 31
0.0
  0
LINE
  5
14FE
330
14FA
100
AcDbEntity
  8
0
 62
   143
100
AcDbLine
 10
12.86431671819855
 20
4.682228369597396
 30
0.0
 11
12.86431671819878
 21
0.0
 31
0.0
  0
ENDBLK
  5
14FF
330
14FA
100
AcDbEntity
  8
0
100
AcDbBlockEnd
  0
BLOCK
  5
1501
330
1500
100
AcDbEntity
  8
0
100
AcDbBlockBegin
  2
24G外枠
 70
     0
 10
0.0
 20
0.0
 30
0.0
  3
24G外枠
  1

  0
LINE
  5
1502
330
1500
100
AcDbEntity
  8
0
100
AcDbLine
 10
-3.0
 20
1.0
 30
0.0
 11
-3.0
 21
4.0
 31
0.0
  0
LINE
  5
1503
330
1500
100
AcDbEntity
  8
0
100
AcDbLine
 10
-3.0
 20
4.0
 30
0.0
 11
-3.0
 21
4.0
 31
0.0
  0
LINE
  5
1504
330
1500
100
AcDbEntity
  8
0
100
AcDbLine
 10
-4.0
 20
3.0
 30
0.0
 11
-4.0
 21
-9.0
 31
0.0
  0
ARC
  5
1505
330
1500
100
AcDbEntity
  8
0
100
AcDbCircle
 10
-3.0
 20
3.0
 30
0.0
 40
1.0
100
AcDbArc
 50
90.0
 51
180.0
1001
GENIUS_GENOBJ-N-FIL_13
1002
{
1000
OWNER
1000
GEN
1002
}
1001
GENIUS_GENODEF_13
1002
{
1000
HIER
1070
     0
1002
}
1002
{
1000
MANEDIT
1070
     0
1002
}
1002
{
1000
NOSEL
1070
     0
1002
}
1002
{
1000
BEHIND
1070
     0
1002
}
1002
{
1000
OTHER
1070
     0
1002
}
1002
{
1000
REACTOR
1002
}
  0
LINE
  5
1506
330
1500
100
AcDbEntity
  8
0
100
AcDbLine
 10
-4.0
 20
-9.0
 30
0.0
 11
-6.0
 21
-9.0
 31
0.0
  0
LINE
  5
1507
330
1500
100
AcDbEntity
  8
0
100
AcDbLine
 10
-9.0
 20
-9.0
 30
0.0
 11
-11.0
 21
-9.0
 31
0.0
  0
LINE
  5
1508
330
1500
100
AcDbEntity
  8
0
100
AcDbLine
 10
-6.750000000000014
 20
-14.15646599662506
 30
0.0
 11
-6.750000000000014
 21
-14.79999999999999
 31
0.0
  0
LINE
  5
1509
330
1500
100
AcDbEntity
  8
0
100
AcDbLine
 10
-8.250000000000014
 20
-14.15646599662504
 30
0.0
 11
-8.250000000000014
 21
-14.79999999999999
 31
0.0
  0
LINE
  5
150A
330
1500
100
AcDbEntity
  8
0
100
AcDbLine
 10
-9.500000000000014
 20
-12.05000000000002
 30
0.0
 11
-9.500000000000014
 21
-13.55000000000002
 31
0.0
  0
LINE
  5
150B
330
1500
100
AcDbEntity
  8
0
100
AcDbLine
 10
-5.500000000000014
 20
-12.05000000000002
 30
0.0
 11
-5.500000000000014
 21
-13.55000000000002
 31
0.0
  0
LINE
  5
150C
330
1500
100
AcDbEntity
  8
0
100
AcDbLine
 10
-6.75
 20
-14.79999999999998
 30
0.0
 11
-8.250000000000014
 21
-14.79999999999999
 31
0.0
  0
LINE
  5
150D
330
1500
100
AcDbEntity
  8
0
100
AcDbLine
 10
-11.0
 20
-9.0
 30
0.0
 11
-11.0
 21
-6.5
 31
0.0
  0
ARC
  5
150E
330
1500
100
AcDbEntity
  8
0
100
AcDbCircle
 10
-11.5
 20
-6.5
 30
0.0
 40
0.5
100
AcDbArc
 50
0.0
 51
90.0
1001
GENIUS_GENOBJ-N-FIL_13
1002
{
1000
OWNER
1000
GEN
1002
}
1001
GENIUS_GENODEF_13
1002
{
1000
HIER
1070
     0
1002
}
1002
{
1000
MANEDIT
1070
     0
1002
}
1002
{
1000
NOSEL
1070
     0
1002
}
1002
{
1000
BEHIND
1070
     0
1002
}
1002
{
1000
OTHER
1070
     0
1002
}
1002
{
1000
REACTOR
1002
}
  0
LINE
  5
150F
330
1500
100
AcDbEntity
  8
0
100
AcDbLine
 10
-11.5
 20
-6.0
 30
0.0
 11
-11.5
 21
-6.0
 31
0.0
  0
LINE
  5
1510
330
1500
100
AcDbEntity
  8
0
100
AcDbLine
 10
-12.0
 20
-6.5
 30
0.0
 11
-12.0
 21
-17.29999999999999
 31
0.0
  0
ARC
  5
1511
330
1500
100
AcDbEntity
  8
0
100
AcDbCircle
 10
-11.5
 20
-6.5
 30
0.0
 40
0.5
100
AcDbArc
 50
90.0
 51
180.0
1001
GENIUS_GENOBJ-N-FIL_13
1002
{
1000
OWNER
1000
GEN
1002
}
1001
GENIUS_GENODEF_13
1002
{
1000
HIER
1070
     0
1002
}
1002
{
1000
MANEDIT
1070
     0
1002
}
1002
{
1000
NOSEL
1070
     0
1002
}
1002
{
1000
BEHIND
1070
     0
1002
}
1002
{
1000
OTHER
1070
     0
1002
}
1002
{
1000
REACTOR
1002
}
  0
LINE
  5
1512
330
1500
100
AcDbEntity
  8
0
100
AcDbLine
 10
-8.999999999999985
 20
-10.20192378864671
 30
0.0
 11
-8.275000000000005
 21
-11.45766062413412
 31
0.0
  0
LINE
  5
1513
330
1500
100
AcDbEntity
  8
0
100
AcDbLine
 10
-8.999999999999985
 20
-9.0
 30
0.0
 11
-8.999999999999985
 21
-10.20192378864671
 31
0.0
  0
LINE
  5
1514
330
1500
100
AcDbEntity
  8
0
100
AcDbLine
 10
-6.0
 20
-9.0
 30
0.0
 11
-5.999999999999985
 21
-10.20192378864674
 31
0.0
  0
LINE
  5
1515
330
1500
100
AcDbEntity
  8
0
100
AcDbLine
 10
-12.0
 20
-17.29999999999999
 30
0.0
 11
-11.0
 21
-17.29999999999999
 31
0.0
  0
LINE
  5
1516
330
1500
100
AcDbEntity
  8
0
100
AcDbLine
 10
-11.0
 20
-17.29999999999999
 30
0.0
 11
-11.0
 21
-15.8
 31
0.0
  0
LINE
  5
1517
330
1500
100
AcDbEntity
  8
0
100
AcDbLine
 10
-10.69999999999999
 20
-15.8
 30
0.0
 11
3.700127265497826
 21
-15.8
 31
0.0
  0
LINE
  5
1518
330
1500
100
AcDbEntity
  8
0
100
AcDbLine
 10
4.0
 20
-15.49126254601265
 30
0.0
 11
3.999999999999985
 21
-35.3
 31
0.0
  0
LINE
  5
1519
330
1500
100
AcDbEntity
  8
0
100
AcDbLine
 10
4.499999999999985
 20
-35.8
 30
0.0
 11
5.5
 21
-35.8
 31
0.0
  0
ARC
  5
151A
330
1500
100
AcDbEntity
  8
0
100
AcDbCircle
 10
5.5
 20
-35.3
 30
0.0
 40
0.5
100
AcDbArc
 50
270.0
 51
0.0
1001
GENIUS_GENODEF_13
1002
{
1000
HIER
1070
     0
1002
}
1002
{
1000
MANEDIT
1070
     0
1002
}
1002
{
1000
NOSEL
1070
     0
1002
}
1002
{
1000
BEHIND
1070
     0
1002
}
1002
{
1000
OTHER
1070
     0
1002
}
1002
{
1000
REACTOR
1002
}
1001
GENIUS_GENOBJ-N-FIL_13
1002
{
1000
OWNER
1000
GEN
1002
}
  0
ARC
  5
151B
330
1500
100
AcDbEntity
  8
0
100
AcDbCircle
 10
4.499999999999985
 20
-35.3
 30
0.0
 40
0.5
100
AcDbArc
 50
180.0
 51
270.0
1001
GENIUS_GENODEF_13
1002
{
1000
HIER
1070
     0
1002
}
1002
{
1000
MANEDIT
1070
     0
1002
}
1002
{
1000
NOSEL
1070
     0
1002
}
1002
{
1000
BEHIND
1070
     0
1002
}
1002
{
1000
OTHER
1070
     0
1002
}
1002
{
1000
REACTOR
1002
}
1001
GENIUS_GENOBJ-N-FIL_13
1002
{
1000
OWNER
1000
GEN
1002
}
  0
LINE
  5
151C
330
1500
100
AcDbEntity
  8
0
100
AcDbLine
 10
6.0
 20
-35.3
 30
0.0
 11
6.0
 21
-35.3
 31
0.0
  0
ARC
  5
151D
330
1500
100
AcDbEntity
  8
0
100
AcDbCircle
 10
5.5
 20
-35.3
 30
0.0
 40
0.5
100
AcDbArc
 50
0.0
 51
90.0
1001
GENIUS_GENODEF_13
1002
{
1000
HIER
1070
     0
1002
}
1002
{
1000
MANEDIT
1070
     0
1002
}
1002
{
1000
NOSEL
1070
     0
1002
}
1002
{
1000
BEHIND
1070
     0
1002
}
1002
{
1000
OTHER
1070
     0
1002
}
1002
{
1000
REACTOR
1002
}
1001
GENIUS_GENOBJ-N-FIL_13
1002
{
1000
OWNER
1000
GEN
1002
}
  0
LINE
  5
151E
330
1500
100
AcDbEntity
  8
0
100
AcDbLine
 10
5.5
 20
-34.8
 30
0.0
 11
5.0
 21
-34.8
 31
0.0
  0
LINE
  5
151F
330
1500
100
AcDbEntity
  8
0
100
AcDbLine
 10
5.0
 20
-34.8
 30
0.0
 11
5.0
 21
-28.59999999999998
 31
0.0
  0
LINE
  5
1520
330
1500
100
AcDbEntity
  8
0
100
AcDbLine
 10
5.0
 20
-28.0
 30
0.0
 11
5.0
 21
-21.6
 31
0.0
  0
LINE
  5
1521
330
1500
100
AcDbEntity
  8
0
100
AcDbLine
 10
5.0
 20
-21.6
 30
0.0
 11
9.749999999999985
 21
-21.6
 31
0.0
  0
ARC
  5
1522
330
1500
100
AcDbEntity
  8
0
100
AcDbCircle
 10
9.749999999999985
 20
-20.44999999999999
 30
0.0
 40
1.149999999999999
100
AcDbArc
 50
270.0
 51
0.0
1001
GENIUS_GENOBJ-N-FIL_13
1002
{
1000
OWNER
1000
GEN
1002
}
1001
GENIUS_GENODEF_13
1002
{
1000
HIER
1070
     0
1002
}
1002
{
1000
MANEDIT
1070
     0
1002
}
1002
{
1000
NOSEL
1070
     0
1002
}
1002
{
1000
BEHIND
1070
     0
1002
}
1002
{
1000
OTHER
1070
     0
1002
}
1002
{
1000
REACTOR
1002
}
  0
LINE
  5
1523
330
1500
100
AcDbEntity
  8
0
100
AcDbLine
 10
5.0
 20
-20.6
 30
0.0
 11
9.699999999999988
 21
-20.6
 31
0.0
  0
LINE
  5
1524
330
1500
100
AcDbEntity
  8
0
100
AcDbLine
 10
10.89017542509913
 20
-20.6
 30
0.0
 11
10.9
 21
-20.6
 31
0.0
  0
LINE
  5
1525
330
1500
100
AcDbEntity
  8
0
100
AcDbLine
 10
9.600000000000008
 20
-19.3
 30
0.0
 11
9.749999999999971
 21
-19.3
 31
0.0
  0
LINE
  5
1526
330
1500
100
AcDbEntity
  8
0
100
AcDbLine
 10
10.89999999999999
 20
-20.44999999999999
 30
0.0
 11
10.89999999999998
 21
-20.45000000000002
 31
0.0
  0
ARC
  5
1527
330
1500
100
AcDbEntity
  8
0
100
AcDbCircle
 10
9.749999999999971
 20
-20.45
 30
0.0
 40
1.149999999999999
100
AcDbArc
 50
359.9999999999992
 51
90.0
1001
GENIUS_GENODEF_13
1002
{
1000
HIER
1070
     0
1002
}
1002
{
1000
MANEDIT
1070
     0
1002
}
1002
{
1000
NOSEL
1070
     0
1002
}
1002
{
1000
BEHIND
1070
     0
1002
}
1002
{
1000
OTHER
1070
     0
1002
}
1002
{
1000
REACTOR
1002
}
1001
GENIUS_GENOBJ-N-FIL_13
1002
{
1000
OWNER
1000
GEN
1002
}
  0
LINE
  5
1528
330
1500
100
AcDbEntity
  8
0
100
AcDbLine
 10
5.0
 20
-20.6
 30
0.0
 11
5.0
 21
-18.59999999999998
 31
0.0
  0
LINE
  5
1529
330
1500
100
AcDbEntity
  8
0
100
AcDbLine
 10
5.0
 20
-17.60000000000001
 30
0.0
 11
4.999999999999985
 21
-15.5
 31
0.0
  0
LINE
  5
152A
330
1500
100
AcDbEntity
  8
0
100
AcDbLine
 10
5.299999999999982
 20
-15.8
 30
0.0
 11
11.99999999999998
 21
-15.8
 31
0.0
  0
LINE
  5
152B
330
1500
100
AcDbEntity
  8
0
100
AcDbLine
 10
-3.0
 20
1.0
 30
0.0
 11
3.000000000000014
 21
1.0
 31
0.0
  0
LINE
  5
152C
330
1500
100
AcDbEntity
  8
0
100
AcDbLine
 10
-3.0
 20
0.0
 30
0.0
 11
3.000000000000014
 21
0.0000000000000142
 31
0.0
  0
LINE
  5
152D
330
1500
100
AcDbEntity
  8
0
100
AcDbLine
 10
-3.0
 20
0.0
 30
0.0
 11
-3.0
 21
-2.200000000000002
 31
0.0
  0
LINE
  5
152E
330
1500
100
AcDbEntity
  8
0
100
AcDbLine
 10
-3.0
 20
-2.200000000000002
 30
0.0
 11
-1.799999999999997
 21
-2.200000000000002
 31
0.0
  0
LINE
  5
152F
330
1500
100
AcDbEntity
  8
0
100
AcDbLine
 10
-1.799999999999997
 20
-2.200000000000002
 30
0.0
 11
-1.799999999999997
 21
-3.200000000000002
 31
0.0
  0
LINE
  5
1530
330
1500
100
AcDbEntity
  8
0
100
AcDbLine
 10
-1.799999999999997
 20
-3.200000000000002
 30
0.0
 11
-3.0
 21
-3.200000000000002
 31
0.0
  0
LINE
  5
1531
330
1500
100
AcDbEntity
  8
0
100
AcDbLine
 10
-3.0
 20
-3.200000000000002
 30
0.0
 11
-3.0
 21
-14.29999999999999
 31
0.0
  0
ARC
  5
1532
330
1500
100
AcDbEntity
  8
0
100
AcDbCircle
 10
-7.5
 20
-12.8
 30
0.0
 40
1.55
100
AcDbArc
 50
208.9385277401819
 51
241.0614722598185
  0
ARC
  5
1533
330
1500
100
AcDbEntity
  8
0
100
AcDbCircle
 10
-7.5
 20
-12.8
 30
0.0
 40
1.55
100
AcDbArc
 50
298.9385277401796
 51
331.0614722598181
  0
ARC
  5
1534
330
1500
100
AcDbEntity
  8
0
100
AcDbCircle
 10
-7.5
 20
-12.8
 30
0.0
 40
1.55
100
AcDbArc
 50
28.93852774017967
 51
59.99999999999915
  0
ARC
  5
1535
330
1500
100
AcDbEntity
  8
0
100
AcDbCircle
 10
-7.5
 20
-12.8
 30
0.0
 40
1.55
100
AcDbArc
 50
120.0000000000001
 51
151.0614722598203
  0
LINE
  5
1536
330
1500
100
AcDbEntity
  8
0
100
AcDbLine
 10
-5.999999999999985
 20
-10.20192378864671
 30
0.0
 11
-6.72499999999998
 21
-11.45766062413412
 31
0.0
  0
LINE
  5
1537
330
1500
100
AcDbEntity
  8
0
100
AcDbLine
 10
-5.500000000000014
 20
-13.55000000000002
 30
0.0
 11
-6.143534003374966
 21
-13.55000000000002
 31
0.0
  0
LINE
  5
1538
330
1500
100
AcDbEntity
  8
0
100
AcDbLine
 10
-8.856465996625033
 20
-13.55000000000002
 30
0.0
 11
-9.500000000000014
 21
-13.55000000000002
 31
0.0
  0
LINE
  5
1539
330
1500
100
AcDbEntity
  8
0
100
AcDbLine
 10
-5.500000000000014
 20
-12.05000000000002
 30
0.0
 11
-6.143534003374924
 21
-12.05000000000002
 31
0.0
  0
LINE
  5
153A
330
1500
100
AcDbEntity
  8
0
100
AcDbLine
 10
-8.856465996625075
 20
-12.05000000000002
 30
0.0
 11
-9.500000000000014
 21
-12.05000000000002
 31
0.0
  0
LINE
  5
153B
330
1500
100
AcDbEntity
  8
0
100
AcDbLine
 10
-11.0
 20
-15.8
 30
0.0
 11
-11.0
 21
-15.5
 31
0.0
  0
LINE
  5
153C
330
1500
100
AcDbEntity
  8
0
100
AcDbLine
 10
-11.0
 20
-15.5
 30
0.0
 11
-10.7
 21
-15.8
 31
0.0
  0
LINE
  5
153D
330
1500
100
AcDbEntity
  8
0
100
AcDbLine
 10
4.000000000000014
 20
-15.49126254601265
 30
0.0
 11
3.700000000000017
 21
-15.79126254601264
 31
0.0
  0
ARC
  5
153E
330
1500
100
AcDbEntity
  8
0
100
AcDbCircle
 10
9.600000000000008
 20
-19.5
 30
0.0
 40
0.2
100
AcDbArc
 50
90.0
 51
197.9606257298086
  0
LINE
  5
153F
330
1500
100
AcDbEntity
  8
0
100
AcDbLine
 10
9.409746269704498
 20
-19.56167266905724
 30
0.0
 11
9.700000000000002
 21
-20.6
 31
0.0
  0
LINE
  5
1540
330
1500
100
AcDbEntity
  8
0
100
AcDbLine
 10
5.499999999999985
 20
-18.09999999999999
 30
0.0
 11
5.0
 21
-17.60000000000001
 31
0.0
  0
LINE
  5
1541
330
1500
100
AcDbEntity
  8
0
100
AcDbLine
 10
5.499999999999985
 20
-18.09999999999999
 30
0.0
 11
4.999999999999985
 21
-18.6
 31
0.0
  0
LINE
  5
1542
330
1500
100
AcDbEntity
  8
0
100
AcDbLine
 10
4.999999999999985
 20
-15.5
 30
0.0
 11
5.299999999999982
 21
-15.8
 31
0.0
  0
LINE
  5
1543
330
1500
100
AcDbEntity
  8
0
100
AcDbLine
 10
4.700000000000002
 20
-28.3
 30
0.0
 11
5.0
 21
-28.0
 31
0.0
  0
LINE
  5
1544
330
1500
100
AcDbEntity
  8
0
100
AcDbLine
 10
4.700000000000002
 20
-28.3
 30
0.0
 11
5.0
 21
-28.59999999999999
 31
0.0
  0
LINE
  5
1545
330
1500
100
AcDbEntity
  8
0
100
AcDbLine
 10
3.000000000000014
 20
1.0
 30
0.0
 11
3.000000000000014
 21
4.0
 31
0.0
  0
LINE
  5
1546
330
1500
100
AcDbEntity
  8
0
100
AcDbLine
 10
3.000000000000014
 20
4.0
 30
0.0
 11
3.000000000000014
 21
4.0
 31
0.0
  0
LINE
  5
1547
330
1500
100
AcDbEntity
  8
0
100
AcDbLine
 10
4.000000000000014
 20
3.0
 30
0.0
 11
4.000000000000014
 21
-9.0
 31
0.0
  0
ARC
  5
1548
330
1500
100
AcDbEntity
  8
0
100
AcDbCircle
 10
3.000000000000014
 20
3.0
 30
0.0
 40
0.9999999999999998
100
AcDbArc
 50
0.0
 51
90.0
1001
GENIUS_GENOBJ-N-FIL_13
1002
{
1000
OWNER
1000
GEN
1002
}
1001
GENIUS_GENODEF_13
1002
{
1000
HIER
1070
     0
1002
}
1002
{
1000
MANEDIT
1070
     0
1002
}
1002
{
1000
NOSEL
1070
     0
1002
}
1002
{
1000
BEHIND
1070
     0
1002
}
1002
{
1000
OTHER
1070
     0
1002
}
1002
{
1000
REACTOR
1002
}
  0
LINE
  5
1549
330
1500
100
AcDbEntity
  8
0
100
AcDbLine
 10
4.000000000000014
 20
-9.0
 30
0.0
 11
6.000000000000014
 21
-9.0
 31
0.0
  0
LINE
  5
154A
330
1500
100
AcDbEntity
  8
0
100
AcDbLine
 10
9.000000000000014
 20
-9.0
 30
0.0
 11
11.00000000000001
 21
-9.0
 31
0.0
  0
LINE
  5
154B
330
1500
100
AcDbEntity
  8
0
100
AcDbLine
 10
6.750000000000028
 20
-14.15646599662506
 30
0.0
 11
6.750000000000028
 21
-14.79999999999999
 31
0.0
  0
LINE
  5
154C
330
1500
100
AcDbEntity
  8
0
100
AcDbLine
 10
8.250000000000028
 20
-14.15646599662504
 30
0.0
 11
8.250000000000028
 21
-14.79999999999999
 31
0.0
  0
LINE
  5
154D
330
1500
100
AcDbEntity
  8
0
100
AcDbLine
 10
9.500000000000028
 20
-12.05000000000002
 30
0.0
 11
9.500000000000028
 21
-13.55000000000002
 31
0.0
  0
LINE
  5
154E
330
1500
100
AcDbEntity
  8
0
100
AcDbLine
 10
5.500000000000028
 20
-12.05000000000002
 30
0.0
 11
5.500000000000028
 21
-13.55000000000002
 31
0.0
  0
LINE
  5
154F
330
1500
100
AcDbEntity
  8
0
100
AcDbLine
 10
6.750000000000014
 20
-14.79999999999998
 30
0.0
 11
8.250000000000028
 21
-14.79999999999999
 31
0.0
  0
LINE
  5
1550
330
1500
100
AcDbEntity
  8
0
100
AcDbLine
 10
11.00000000000001
 20
-9.0
 30
0.0
 11
11.00000000000001
 21
-6.5
 31
0.0
  0
ARC
  5
1551
330
1500
100
AcDbEntity
  8
0
100
AcDbCircle
 10
11.50000000000001
 20
-6.5
 30
0.0
 40
0.5
100
AcDbArc
 50
90.0
 51
180.0
1001
GENIUS_GENOBJ-N-FIL_13
1002
{
1000
OWNER
1000
GEN
1002
}
1001
GENIUS_GENODEF_13
1002
{
1000
HIER
1070
     0
1002
}
1002
{
1000
MANEDIT
1070
     0
1002
}
1002
{
1000
NOSEL
1070
     0
1002
}
1002
{
1000
BEHIND
1070
     0
1002
}
1002
{
1000
OTHER
1070
     0
1002
}
1002
{
1000
REACTOR
1002
}
  0
LINE
  5
1552
330
1500
100
AcDbEntity
  8
0
100
AcDbLine
 10
11.50000000000001
 20
-6.0
 30
0.0
 11
11.50000000000001
 21
-6.0
 31
0.0
  0
LINE
  5
1553
330
1500
100
AcDbEntity
  8
0
100
AcDbLine
 10
12.00000000000001
 20
-6.5
 30
0.0
 11
12.00000000000001
 21
-15.8
 31
0.0
  0
ARC
  5
1554
330
1500
100
AcDbEntity
  8
0
100
AcDbCircle
 10
11.50000000000001
 20
-6.5
 30
0.0
 40
0.5
100
AcDbArc
 50
0.0
 51
90.0
1001
GENIUS_GENOBJ-N-FIL_13
1002
{
1000
OWNER
1000
GEN
1002
}
1001
GENIUS_GENODEF_13
1002
{
1000
HIER
1070
     0
1002
}
1002
{
1000
MANEDIT
1070
     0
1002
}
1002
{
1000
NOSEL
1070
     0
1002
}
1002
{
1000
BEHIND
1070
     0
1002
}
1002
{
1000
OTHER
1070
     0
1002
}
1002
{
1000
REACTOR
1002
}
  0
LINE
  5
1555
330
1500
100
AcDbEntity
  8
0
100
AcDbLine
 10
9.0
 20
-10.20192378864671
 30
0.0
 11
8.275000000000019
 21
-11.45766062413412
 31
0.0
  0
LINE
  5
1556
330
1500
100
AcDbEntity
  8
0
100
AcDbLine
 10
9.0
 20
-9.0
 30
0.0
 11
9.0
 21
-10.20192378864671
 31
0.0
  0
LINE
  5
1557
330
1500
100
AcDbEntity
  8
0
100
AcDbLine
 10
6.000000000000014
 20
-9.0
 30
0.0
 11
6.0
 21
-10.20192378864674
 31
0.0
  0
LINE
  5
1558
330
1500
100
AcDbEntity
  8
0
100
AcDbLine
 10
3.000000000000014
 20
0.0
 30
0.0
 11
3.000000000000014
 21
-2.200000000000002
 31
0.0
  0
LINE
  5
1559
330
1500
100
AcDbEntity
  8
0
100
AcDbLine
 10
3.000000000000014
 20
-2.200000000000002
 30
0.0
 11
1.800000000000011
 21
-2.200000000000002
 31
0.0
  0
LINE
  5
155A
330
1500
100
AcDbEntity
  8
0
100
AcDbLine
 10
1.800000000000011
 20
-2.200000000000002
 30
0.0
 11
1.800000000000011
 21
-3.200000000000002
 31
0.0
  0
LINE
  5
155B
330
1500
100
AcDbEntity
  8
0
100
AcDbLine
 10
1.800000000000011
 20
-3.200000000000002
 30
0.0
 11
3.000000000000014
 21
-3.200000000000002
 31
0.0
  0
LINE
  5
155C
330
1500
100
AcDbEntity
  8
0
100
AcDbLine
 10
3.000000000000014
 20
-3.200000000000002
 30
0.0
 11
3.000000000000014
 21
-14.29999999999999
 31
0.0
  0
ARC
  5
155D
330
1500
100
AcDbEntity
  8
0
100
AcDbCircle
 10
7.500000000000014
 20
-12.8
 30
0.0
 40
1.549999999999999
100
AcDbArc
 50
298.9385277401815
 51
331.0614722598174
  0
ARC
  5
155E
330
1500
100
AcDbEntity
  8
0
100
AcDbCircle
 10
7.500000000000014
 20
-12.8
 30
0.0
 40
1.549999999999999
100
AcDbArc
 50
208.9385277401826
 51
241.0614722598204
  0
ARC
  5
155F
330
1500
100
AcDbEntity
  8
0
100
AcDbCircle
 10
7.500000000000014
 20
-12.8
 30
0.0
 40
1.549999999999999
100
AcDbArc
 50
120.0000000000001
 51
151.0614722598203
  0
ARC
  5
1560
330
1500
100
AcDbEntity
  8
0
100
AcDbCircle
 10
7.500000000000014
 20
-12.8
 30
0.0
 40
1.549999999999999
100
AcDbArc
 50
28.93852774017967
 51
59.99999999999986
  0
LINE
  5
1561
330
1500
100
AcDbEntity
  8
0
100
AcDbLine
 10
6.0
 20
-10.20192378864671
 30
0.0
 11
6.724999999999994
 21
-11.45766062413412
 31
0.0
  0
LINE
  5
1562
330
1500
100
AcDbEntity
  8
0
100
AcDbLine
 10
5.500000000000028
 20
-13.55000000000002
 30
0.0
 11
6.143534003374981
 21
-13.55000000000002
 31
0.0
  0
LINE
  5
1563
330
1500
100
AcDbEntity
  8
0
100
AcDbLine
 10
8.856465996625047
 20
-13.55000000000002
 30
0.0
 11
9.500000000000028
 21
-13.55000000000002
 31
0.0
  0
LINE
  5
1564
330
1500
100
AcDbEntity
  8
0
100
AcDbLine
 10
5.500000000000028
 20
-12.05000000000002
 30
0.0
 11
6.143534003374938
 21
-12.05000000000002
 31
0.0
  0
LINE
  5
1565
330
1500
100
AcDbEntity
  8
0
100
AcDbLine
 10
8.85646599662509
 20
-12.05000000000002
 30
0.0
 11
9.500000000000028
 21
-12.05000000000002
 31
0.0
  0
LINE
  5
1566
330
1500
100
AcDbEntity
  8
0
100
AcDbLine
 10
-3.0
 20
-14.29999999999999
 30
0.0
 11
3.000000000000014
 21
-14.29999999999999
 31
0.0
  0
ENDBLK
  5
1567
330
1500
100
AcDbEntity
  8
0
100
AcDbBlockEnd
  0
BLOCK
  5
1569
330
1568
100
AcDbEntity
  8
0
 62
     0
370
    -2
100
AcDbBlockBegin
  2
24G羽根
 70
     0
 10
0.0
 20
0.0
 30
0.0
  3
24G羽根
  1

  0
LINE
  5
156A
330
1568
100
AcDbEntity
  8
0
100
AcDbLine
 10
-19.0
 20
1.849999999999909
 30
0.0
 11
-19.0
 21
2.349999999999909
 31
0.0
  0
LINE
  5
156B
330
1568
100
AcDbEntity
  8
0
100
AcDbLine
 10
-19.5
 20
3.349999999999909
 30
0.0
 11
-10.4142135623731
 21
3.349999999999909
 31
0.0
  0
LINE
  5
156C
330
1568
100
AcDbEntity
  8
0
100
AcDbLine
 10
-19.0
 20
2.349999999999909
 30
0.0
 11
-10.4142135623731
 21
2.349999999999909
 31
0.0
  0
LINE
  5
156D
330
1568
100
AcDbEntity
  8
0
100
AcDbLine
 10
-7.5
 20
3.049999999999727
 30
0.0
 11
-7.5
 21
0.849999999999909
 31
0.0
  0
ARC
  5
156E
330
1568
100
AcDbEntity
  8
0
100
AcDbCircle
 10
-7.199999999999931
 20
3.049999999999727
 30
0.0
 40
0.3
100
AcDbArc
 50
90.0
 51
180.0
1001
GENIUS_GENODEF_13
1002
{
1000
HIER
1070
     0
1002
}
1002
{
1000
MANEDIT
1070
     0
1002
}
1002
{
1000
NOSEL
1070
     0
1002
}
1002
{
1000
BEHIND
1070
     0
1002
}
1002
{
1000
OTHER
1070
     0
1002
}
1002
{
1000
REACTOR
1002
}
1001
GENIUS_GENOBJ-N-FIL_13
1002
{
1000
OWNER
1000
GEN
1002
}
  0
LINE
  5
156F
330
1568
100
AcDbEntity
  8
0
100
AcDbLine
 10
-6.5
 20
2.349999999999909
 30
0.0
 11
-6.5
 21
-0.8399494936611517
 31
0.0
  0
LINE
  5
1570
330
1568
100
AcDbEntity
  8
0
100
AcDbLine
 10
-7.5
 20
0.849999999999909
 30
0.0
 11
-9.70710678118661
 21
3.057106781186575
 31
0.0
  0
ARC
  5
1571
330
1568
100
AcDbEntity
  8
0
100
AcDbCircle
 10
-10.4142135623731
 20
2.349999999999909
 30
0.0
 40
1.0
100
AcDbArc
 50
45.0000000000069
 51
90.0
1001
GENIUS_GENODEF_13
1002
{
1000
HIER
1070
     0
1002
}
1002
{
1000
MANEDIT
1070
     0
1002
}
1002
{
1000
NOSEL
1070
     0
1002
}
1002
{
1000
BEHIND
1070
     0
1002
}
1002
{
1000
OTHER
1070
     0
1002
}
1002
{
1000
REACTOR
1002
}
1001
GENIUS_GENOBJ-N-FIL_13
1002
{
1000
OWNER
1000
GEN
1002
}
  0
LINE
  5
1572
330
1568
100
AcDbEntity
  8
0
100
AcDbLine
 10
-7.012132034356
 20
-1.052081528016969
 30
0.0
 11
-10.4142135623731
 21
2.349999999999909
 31
0.0
  0
ARC
  5
1573
330
1568
100
AcDbEntity
  8
0
100
AcDbCircle
 10
-6.800000000000068
 20
-0.8399494936611517
 30
0.0
 40
0.3
100
AcDbArc
 50
225.0000000000069
 51
0.0
1001
GENIUS_GENODEF_13
1002
{
1000
HIER
1070
     0
1002
}
1002
{
1000
MANEDIT
1070
     0
1002
}
1002
{
1000
NOSEL
1070
     0
1002
}
1002
{
1000
BEHIND
1070
     0
1002
}
1002
{
1000
OTHER
1070
     0
1002
}
1002
{
1000
REACTOR
1002
}
1001
GENIUS_GENOBJ-N-FIL_13
1002
{
1000
OWNER
1000
GEN
1002
}
  0
LINE
  5
1574
330
1568
100
AcDbEntity
  8
0
100
AcDbLine
 10
-7.199999999999931
 20
3.349999999999909
 30
0.0
 11
4.585786437626893
 21
3.349999999999909
 31
0.0
  0
LINE
  5
1575
330
1568
100
AcDbEntity
  8
0
100
AcDbLine
 10
10.92182540694796
 20
-11.34999999999991
 30
0.0
 11
24.49999999999994
 21
-11.34999999999991
 31
0.0
  0
ARC
  5
1576
330
1568
100
AcDbEntity
  8
0
100
AcDbCircle
 10
10.92182540694796
 20
-10.34999999999991
 30
0.0
 40
1.0
100
AcDbArc
 50
225.0000000000069
 51
270.0
1001
GENIUS_GENODEF_13
1002
{
1000
HIER
1070
     0
1002
}
1002
{
1000
MANEDIT
1070
     0
1002
}
1002
{
1000
NOSEL
1070
     0
1002
}
1002
{
1000
BEHIND
1070
     0
1002
}
1002
{
1000
OTHER
1070
     0
1002
}
1002
{
1000
REACTOR
1002
}
1001
GENIUS_GENOBJ-N-FIL_13
1002
{
1000
OWNER
1000
GEN
1002
}
  0
LINE
  5
1577
330
1568
100
AcDbEntity
  8
0
100
AcDbLine
 10
10.92182540694796
 20
-10.34999999999991
 30
0.0
 11
16.561522368915
 21
-10.34999999999991
 31
0.0
  0
ARC
  5
1578
330
1568
100
AcDbEntity
  8
0
100
AcDbCircle
 10
16.561522368915
 20
-10.05000000000018
 30
0.0
 40
0.3
100
AcDbArc
 50
270.0
 51
45.0000000000069
1001
GENIUS_GENOBJ-N-FIL_13
1002
{
1000
OWNER
1000
GEN
1002
}
1001
GENIUS_GENODEF_13
1002
{
1000
HIER
1070
     0
1002
}
1002
{
1000
MANEDIT
1070
     0
1002
}
1002
{
1000
NOSEL
1070
     0
1002
}
1002
{
1000
BEHIND
1070
     0
1002
}
1002
{
1000
OTHER
1070
     0
1002
}
1002
{
1000
REACTOR
1002
}
  0
LINE
  5
1579
330
1568
100
AcDbEntity
  8
0
100
AcDbLine
 10
18.69999999999999
 20
-10.34999999999991
 30
0.0
 11
24.0
 21
-10.34999999999991
 31
0.0
  0
LINE
  5
157A
330
1568
100
AcDbEntity
  8
0
100
AcDbLine
 10
2.44503258468228
 20
2.349999999999909
 30
0.0
 11
4.585786437626893
 21
2.349999999999909
 31
0.0
  0
ARC
  5
157B
330
1568
100
AcDbEntity
  8
0
100
AcDbCircle
 10
0.0
 20
0.0
 30
0.0
 40
1.55
100
AcDbArc
 50
49.78319536385782
 51
61.06147225981891
  0
ARC
  5
157C
330
1568
100
AcDbEntity
  8
0
100
AcDbCircle
 10
0.0
 20
0.0
 30
0.0
 40
1.55
100
AcDbArc
 50
118.9385277401782
 51
151.0614722598189
  0
ARC
  5
157D
330
1568
100
AcDbEntity
  8
0
100
AcDbCircle
 10
0.0
 20
0.0
 30
0.0
 40
1.55
100
AcDbArc
 50
208.9385277401811
 51
241.0614722598218
  0
ARC
  5
157E
330
1568
100
AcDbEntity
  8
0
100
AcDbCircle
 10
0.0
 20
0.0
 30
0.0
 40
1.55
100
AcDbArc
 50
298.9385277401811
 51
310.2168046361422
  0
ARC
  5
157F
330
1568
100
AcDbEntity
  8
0
100
AcDbCircle
 10
0.0
 20
0.0
 30
0.0
 40
3.0
100
AcDbArc
 50
141.5952958853092
 51
299.2517156982722
  0
ARC
  5
1580
330
1568
100
AcDbEntity
  8
0
100
AcDbCircle
 10
-2.586020108197033
 20
2.049999999999727
 30
0.0
 40
0.3
100
AcDbArc
 50
321.5952958853093
 51
90.0
1001
GENIUS_GENODEF_13
1002
{
1000
HIER
1070
     0
1002
}
1002
{
1000
MANEDIT
1070
     0
1002
}
1002
{
1000
NOSEL
1070
     0
1002
}
1002
{
1000
BEHIND
1070
     0
1002
}
1002
{
1000
OTHER
1070
     0
1002
}
1002
{
1000
REACTOR
1002
}
1001
GENIUS_GENOBJ-N-FIL_13
1002
{
1000
OWNER
1000
GEN
1002
}
  0
ARC
  5
1581
330
1568
100
AcDbEntity
  8
0
100
AcDbCircle
 10
1.612536313765303
 20
-2.879188537902336
 30
0.0
 40
0.3
100
AcDbArc
 50
45.0000000000069
 51
119.251715698275
1001
GENIUS_GENOBJ-N-FIL_13
1002
{
1000
OWNER
1000
GEN
1002
}
1001
GENIUS_GENODEF_13
1002
{
1000
HIER
1070
     0
1002
}
1002
{
1000
MANEDIT
1070
     0
1002
}
1002
{
1000
NOSEL
1070
     0
1002
}
1002
{
1000
BEHIND
1070
     0
1002
}
1002
{
1000
OTHER
1070
     0
1002
}
1002
{
1000
REACTOR
1002
}
  0
ARC
  5
1582
330
1568
100
AcDbEntity
  8
0
100
AcDbCircle
 10
1.468925818484365
 20
1.737205209464264
 30
0.0
 40
0.725
100
AcDbArc
 50
229.7831953638578
 51
17.76813003970155
  0
ARC
  5
1583
330
1568
100
AcDbEntity
  8
0
100
AcDbCircle
 10
2.445032584682223
 20
2.049999999999727
 30
0.0
 40
0.3
100
AcDbArc
 50
89.99999999999349
 51
197.7681300397015
1001
GENIUS_GENODEF_13
1002
{
1000
HIER
1070
     0
1002
}
1002
{
1000
MANEDIT
1070
     0
1002
}
1002
{
1000
NOSEL
1070
     0
1002
}
1002
{
1000
BEHIND
1070
     0
1002
}
1002
{
1000
OTHER
1070
     0
1002
}
1002
{
1000
REACTOR
1002
}
1001
GENIUS_GENOBJ-N-FIL_13
1002
{
1000
OWNER
1000
GEN
1002
}
  0
ARC
  5
1584
330
1568
100
AcDbEntity
  8
0
100
AcDbCircle
 10
1.468925818484365
 20
-1.737205209464264
 30
0.0
 40
0.725
100
AcDbArc
 50
79.97814626983528
 51
130.2168046361421
  0
LINE
  5
1585
330
1568
100
AcDbEntity
  8
0
100
AcDbLine
 10
-0.75
 20
2.0
 30
0.0
 11
-0.75
 21
1.356465996625047
 31
0.0
  0
LINE
  5
1586
330
1568
100
AcDbEntity
  8
0
100
AcDbLine
 10
0.75
 20
2.0
 30
0.0
 11
0.75
 21
1.356465996625047
 31
0.0
  0
LINE
  5
1587
330
1568
100
AcDbEntity
  8
0
100
AcDbLine
 10
-0.75
 20
2.0
 30
0.0
 11
0.75
 21
2.0
 31
0.0
  0
LINE
  5
1588
330
1568
100
AcDbEntity
  8
0
100
AcDbLine
 10
-0.75
 20
-2.0
 30
0.0
 11
-0.75
 21
-1.356465996625047
 31
0.0
  0
LINE
  5
1589
330
1568
100
AcDbEntity
  8
0
100
AcDbLine
 10
0.75
 20
-2.0
 30
0.0
 11
0.75
 21
-1.356465996625047
 31
0.0
  0
LINE
  5
158A
330
1568
100
AcDbEntity
  8
0
100
AcDbLine
 10
-0.75
 20
-2.0
 30
0.0
 11
0.75
 21
-2.0
 31
0.0
  0
LINE
  5
158B
330
1568
100
AcDbEntity
  8
0
100
AcDbLine
 10
-2.0
 20
-0.75
 30
0.0
 11
-1.356465996625047
 21
-0.75
 31
0.0
  0
LINE
  5
158C
330
1568
100
AcDbEntity
  8
0
100
AcDbLine
 10
-2.0
 20
0.75
 30
0.0
 11
-1.35646599662499
 21
0.75
 31
0.0
  0
LINE
  5
158D
330
1568
100
AcDbEntity
  8
0
100
AcDbLine
 10
-2.0
 20
-0.75
 30
0.0
 11
-2.0
 21
0.75
 31
0.0
  0
ARC
  5
158E
330
1568
100
AcDbEntity
  8
0
100
AcDbCircle
 10
-19.5
 20
2.849999999999909
 30
0.0
 40
0.5
100
AcDbArc
 50
90.0
 51
180.0
1001
GENIUS_GENODEF_13
1002
{
1000
HIER
1070
     0
1002
}
1002
{
1000
MANEDIT
1070
     0
1002
}
1002
{
1000
NOSEL
1070
     0
1002
}
1002
{
1000
BEHIND
1070
     0
1002
}
1002
{
1000
OTHER
1070
     0
1002
}
1002
{
1000
REACTOR
1002
}
1001
GENIUS_GENOBJ-N-FIL_13
1002
{
1000
OWNER
1000
GEN
1002
}
  0
LINE
  5
158F
330
1568
100
AcDbEntity
  8
0
100
AcDbLine
 10
24.99999999999995
 20
-10.84999999999991
 30
0.0
 11
25.0
 21
-9.849999999999909
 31
0.0
  0
ARC
  5
1590
330
1568
100
AcDbEntity
  8
0
100
AcDbCircle
 10
24.49999999999994
 20
-10.84999999999991
 30
0.0
 40
0.5
100
AcDbArc
 50
270.0
 51
0.0
1001
GENIUS_GENODEF_13
1002
{
1000
HIER
1070
     0
1002
}
1002
{
1000
MANEDIT
1070
     0
1002
}
1002
{
1000
NOSEL
1070
     0
1002
}
1002
{
1000
BEHIND
1070
     0
1002
}
1002
{
1000
OTHER
1070
     0
1002
}
1002
{
1000
REACTOR
1002
}
1001
GENIUS_GENOBJ-N-FIL_13
1002
{
1000
OWNER
1000
GEN
1002
}
  0
LINE
  5
1591
330
1568
100
AcDbEntity
  8
0
100
AcDbLine
 10
24.0
 20
-10.34999999999991
 30
0.0
 11
24.0
 21
-9.849999999999909
 31
0.0
  0
LINE
  5
1592
330
1568
100
AcDbEntity
  8
0
100
AcDbLine
 10
18.69999999999999
 20
-10.34999999999991
 30
0.0
 11
5.292893218813446
 21
3.057106781186575
 31
0.0
  0
ARC
  5
1593
330
1568
100
AcDbEntity
  8
0
100
AcDbCircle
 10
4.585786437626893
 20
2.349999999999909
 30
0.0
 40
1.0
100
AcDbArc
 50
45.0000000000069
 51
90.0
1001
GENIUS_GENOBJ-N-FIL_13
1002
{
1000
OWNER
1000
GEN
1002
}
1001
GENIUS_GENODEF_13
1002
{
1000
HIER
1070
     0
1002
}
1002
{
1000
MANEDIT
1070
     0
1002
}
1002
{
1000
NOSEL
1070
     0
1002
}
1002
{
1000
BEHIND
1070
     0
1002
}
1002
{
1000
OTHER
1070
     0
1002
}
1002
{
1000
REACTOR
1002
}
  0
LINE
  5
1594
330
1568
100
AcDbEntity
  8
0
100
AcDbLine
 10
16.77365440327099
 20
-9.837867965643908
 30
0.0
 11
4.585786437626893
 21
2.349999999999909
 31
0.0
  0
LINE
  5
1595
330
1568
100
AcDbEntity
  8
0
100
AcDbLine
 10
10.2147186257614
 20
-11.05710678118657
 30
0.0
 11
1.824668348121235
 21
-2.667056503546518
 31
0.0
  0
LINE
  5
1596
330
1568
100
AcDbEntity
  8
0
100
AcDbLine
 10
10.92182540694796
 20
-10.34999999999991
 30
0.0
 11
1.59509306619941
 21
-1.023267659251359
 31
0.0
  0
LINE
  5
1597
330
1568
100
AcDbEntity
  8
0
100
AcDbLine
 10
-6.5
 20
2.349999999999909
 30
0.0
 11
-2.586020108197033
 21
2.349999999999909
 31
0.0
  0
LINE
  5
1598
330
1568
100
AcDbEntity
  8
0
100
AcDbLine
 10
-20.0
 20
1.849999999999909
 30
0.0
 11
-20.0
 21
2.849999999999909
 31
0.0
  0
ARC
  5
1599
330
1568
100
AcDbEntity
  8
0
100
AcDbCircle
 10
-19.5
 20
1.849999999999909
 30
0.0
 40
0.5
100
AcDbArc
 50
180.0
 51
0.0
  0
ARC
  5
159A
330
1568
100
AcDbEntity
  8
0
100
AcDbCircle
 10
24.5
 20
-9.849999999999909
 30
0.0
 40
0.4999999999999716
100
AcDbArc
 50
0.0
 51
180.0
  0
ENDBLK
  5
159B
330
1568
100
AcDbEntity
  8
0
 62
     0
370
    -2
100
AcDbBlockEnd
  0
BLOCK
  5
1806
330
17FC
100
AcDbEntity
  8
0
100
AcDbBlockBegin
  2
*D182
 70
     1
 10
0.0
 20
0.0
 30
0.0
  3
*D182
  1

  0
LINE
  5
1942
330
17FC
100
AcDbEntity
  8
0
 62
   143
100
AcDbLine
 10
109.9180051397088
 20
449.059545036016
 30
0.0
 11
109.9180051397088
 21
470.7727297240271
 31
0.0
  0
LINE
  5
1943
330
17FC
100
AcDbEntity
  8
0
 62
   143
100
AcDbLine
 10
117.9180051397088
 20
458.559545036016
 30
0.0
 11
117.9180051397088
 21
470.7727297240271
 31
0.0
  0
LINE
  5
1944
330
17FC
100
AcDbEntity
  8
0
 62
   143
100
AcDbLine
 10
111.4180051397088
 20
469.7727297240271
 30
0.0
 11
116.4180051397088
 21
469.7727297240271
 31
0.0
  0
INSERT
  5
1945
330
17FC
100
AcDbEntity
  8
0
 62
   143
100
AcDbBlockReference
  2
_DOT
 10
109.9180051397088
 20
469.7727297240271
 30
0.0
 41
1.5
 42
1.5
 43
1.5
 50
180.0
  0
INSERT
  5
1946
330
17FC
100
AcDbEntity
  8
0
 62
   143
100
AcDbBlockReference
  2
_DOT
 10
117.9180051397088
 20
469.7727297240271
 30
0.0
 41
1.5
 42
1.5
 43
1.5
  0
MTEXT
  5
1947
330
17FC
100
AcDbEntity
  8
0
 62
     7
100
AcDbMText
 10
113.9180051397088
 20
473.7727297240271
 30
0.0
 40
5.0
 41
0.0
 71
     5
 72
     1
  1
8
  7
ｺﾞｼｯｸ
 73
     1
 44
1.0
1001
ACAD
1000
MTEXTBEGIN
1070
    73
1070
     1
1070
    44
1040
1.0
1070
    74
1070
     0
1000
MTEXTEND
  0
POINT
  5
1948
330
17FC
100
AcDbEntity
  8
Defpoints
 62
     0
100
AcDbPoint
 10
109.9180051397088
 20
446.059545036016
 30
0.0
  0
POINT
  5
1949
330
17FC
100
AcDbEntity
  8
Defpoints
 62
     0
100
AcDbPoint
 10
117.9180051397088
 20
455.5595450360161
 30
0.0
  0
POINT
  5
194A
330
17FC
100
AcDbEntity
  8
Defpoints
 62
     0
100
AcDbPoint
 10
117.9180051397088
 20
469.7727297240271
 30
0.0
  0
ENDBLK
  5
1807
330
17FC
100
AcDbEntity
  8
0
100
AcDbBlockEnd
  0
BLOCK
  5
1812
330
1808
100
AcDbEntity
  8
0
100
AcDbBlockBegin
  2
*D183
 70
     1
 10
0.0
 20
0.0
 30
0.0
  3
*D183
  1

  0
LINE
  5
194B
330
1808
100
AcDbEntity
  8
0
 62
   143
100
AcDbLine
 10
117.9180051397088
 20
458.559545036016
 30
0.0
 11
117.9180051397088
 21
470.7727297240271
 31
0.0
  0
LINE
  5
194C
330
1808
100
AcDbEntity
  8
0
 62
   143
100
AcDbLine
 10
125.9180051397088
 20
458.559545036016
 30
0.0
 11
125.9180051397088
 21
470.7727297240271
 31
0.0
  0
LINE
  5
194D
330
1808
100
AcDbEntity
  8
0
 62
   143
100
AcDbLine
 10
119.4180051397088
 20
469.7727297240271
 30
0.0
 11
124.4180051397088
 21
469.7727297240271
 31
0.0
  0
INSERT
  5
194E
330
1808
100
AcDbEntity
  8
0
 62
   143
100
AcDbBlockReference
  2
_DOT
 10
117.9180051397088
 20
469.7727297240271
 30
0.0
 41
1.5
 42
1.5
 43
1.5
 50
180.0
  0
INSERT
  5
194F
330
1808
100
AcDbEntity
  8
0
 62
   143
100
AcDbBlockReference
  2
_DOT
 10
125.9180051397088
 20
469.7727297240271
 30
0.0
 41
1.5
 42
1.5
 43
1.5
  0
MTEXT
  5
1950
330
1808
100
AcDbEntity
  8
0
 62
     7
100
AcDbMText
 10
121.9180051397088
 20
473.7727297240271
 30
0.0
 40
5.0
 41
0.0
 71
     5
 72
     1
  1
8
  7
ｺﾞｼｯｸ
 73
     1
 44
1.0
1001
ACAD
1000
MTEXTBEGIN
1070
    73
1070
     1
1070
    44
1040
1.0
1070
    74
1070
     0
1000
MTEXTEND
  0
POINT
  5
1951
330
1808
100
AcDbEntity
  8
Defpoints
 62
     0
100
AcDbPoint
 10
117.9180051397088
 20
455.5595450360161
 30
0.0
  0
POINT
  5
1952
330
1808
100
AcDbEntity
  8
Defpoints
 62
     0
100
AcDbPoint
 10
125.9180051397088
 20
455.5595450360161
 30
0.0
  0
POINT
  5
1953
330
1808
100
AcDbEntity
  8
Defpoints
 62
     0
100
AcDbPoint
 10
125.9180051397088
 20
469.7727297240271
 30
0.0
  0
ENDBLK
  5
1813
330
1808
100
AcDbEntity
  8
0
100
AcDbBlockEnd
  0
BLOCK
  5
181E
330
1814
100
AcDbEntity
  8
0
100
AcDbBlockBegin
  2
*D184
 70
     1
 10
0.0
 20
0.0
 30
0.0
  3
*D184
  1

  0
LINE
  5
1954
330
1814
100
AcDbEntity
  8
0
 62
   143
100
AcDbLine
 10
133.9180051397088
 20
449.059545036016
 30
0.0
 11
133.9180051397088
 21
470.7727297240271
 31
0.0
  0
LINE
  5
1955
330
1814
100
AcDbEntity
  8
0
 62
   143
100
AcDbLine
 10
125.9180051397088
 20
458.559545036016
 30
0.0
 11
125.9180051397088
 21
470.7727297240271
 31
0.0
  0
LINE
  5
1956
330
1814
100
AcDbEntity
  8
0
 62
   143
100
AcDbLine
 10
132.4180051397088
 20
469.7727297240271
 30
0.0
 11
127.4180051397088
 21
469.7727297240271
 31
0.0
  0
INSERT
  5
1957
330
1814
100
AcDbEntity
  8
0
 62
   143
100
AcDbBlockReference
  2
_DOT
 10
133.9180051397088
 20
469.7727297240271
 30
0.0
 41
1.5
 42
1.5
 43
1.5
  0
INSERT
  5
1958
330
1814
100
AcDbEntity
  8
0
 62
   143
100
AcDbBlockReference
  2
_DOT
 10
125.9180051397088
 20
469.7727297240271
 30
0.0
 41
1.5
 42
1.5
 43
1.5
 50
180.0
  0
MTEXT
  5
1959
330
1814
100
AcDbEntity
  8
0
 62
     7
100
AcDbMText
 10
129.9180051397088
 20
473.7727297240271
 30
0.0
 40
5.0
 41
0.0
 71
     5
 72
     1
  1
8
  7
ｺﾞｼｯｸ
 73
     1
 44
1.0
1001
ACAD
1000
MTEXTBEGIN
1070
    73
1070
     1
1070
    44
1040
1.0
1070
    74
1070
     0
1000
MTEXTEND
  0
POINT
  5
195A
330
1814
100
AcDbEntity
  8
Defpoints
 62
     0
100
AcDbPoint
 10
133.9180051397088
 20
446.059545036016
 30
0.0
  0
POINT
  5
195B
330
1814
100
AcDbEntity
  8
Defpoints
 62
     0
100
AcDbPoint
 10
125.9180051397088
 20
455.5595450360161
 30
0.0
  0
POINT
  5
195C
330
1814
100
AcDbEntity
  8
Defpoints
 62
     0
100
AcDbPoint
 10
125.9180051397088
 20
469.7727297240271
 30
0.0
  0
ENDBLK
  5
181F
330
1814
100
AcDbEntity
  8
0
100
AcDbBlockEnd
  0
BLOCK
  5
182A
330
1820
100
AcDbEntity
  8
0
100
AcDbBlockBegin
  2
*D185
 70
     1
 10
0.0
 20
0.0
 30
0.0
  3
*D185
  1

  0
LINE
  5
195D
330
1820
100
AcDbEntity
  8
0
 62
   143
100
AcDbLine
 10
115.9180051397088
 20
456.559545036016
 30
0.0
 11
80.42856653681246
 21
456.559545036016
 31
0.0
  0
LINE
  5
195E
330
1820
100
AcDbEntity
  8
0
 62
   143
100
AcDbLine
 10
107.4180051397088
 20
446.5595450360161
 30
0.0
 11
80.42856653681246
 21
446.5595450360161
 31
0.0
  0
LINE
  5
195F
330
1820
100
AcDbEntity
  8
0
 62
   143
100
AcDbLine
 10
81.42856653681247
 20
455.0595450360161
 30
0.0
 11
81.42856653681247
 21
448.059545036016
 31
0.0
  0
INSERT
  5
1960
330
1820
100
AcDbEntity
  8
0
 62
   143
100
AcDbBlockReference
  2
_DOT
 10
81.42856653681247
 20
456.559545036016
 30
0.0
 41
1.5
 42
1.5
 43
1.5
 50
90.0
  0
INSERT
  5
1961
330
1820
100
AcDbEntity
  8
0
 62
   143
100
AcDbBlockReference
  2
_DOT
 10
81.42856653681247
 20
446.5595450360161
 30
0.0
 41
1.5
 42
1.5
 43
1.5
 50
270.0
  0
MTEXT
  5
1962
330
1820
100
AcDbEntity
  8
0
 62
     7
100
AcDbMText
 10
77.4285665368124
 20
451.559545036016
 30
0.0
 40
5.0
 41
0.0
 71
     5
 72
     1
  1
10
  7
ｺﾞｼｯｸ
 11
0.0000000000000001
 21
1.0
 31
0.0
 73
     1
 44
1.0
1001
ACAD
1000
MTEXTBEGIN
1070
    73
1070
     1
1070
    44
1040
1.0
1070
    74
1070
     0
1000
MTEXTEND
  0
POINT
  5
1963
330
1820
100
AcDbEntity
  8
Defpoints
 62
     0
100
AcDbPoint
 10
118.9180051397088
 20
456.559545036016
 30
0.0
  0
POINT
  5
1964
330
1820
100
AcDbEntity
  8
Defpoints
 62
     0
100
AcDbPoint
 10
110.4180051397088
 20
446.5595450360161
 30
0.0
  0
POINT
  5
1965
330
1820
100
AcDbEntity
  8
Defpoints
 62
     0
100
AcDbPoint
 10
81.42856653681247
 20
446.5595450360161
 30
0.0
  0
ENDBLK
  5
182B
330
1820
100
AcDbEntity
  8
0
100
AcDbBlockEnd
  0
BLOCK
  5
1836
330
182C
100
AcDbEntity
  8
0
100
AcDbBlockBegin
  2
*D186
 70
     1
 10
0.0
 20
0.0
 30
0.0
  3
*D186
  1

  0
LINE
  5
1966
330
182C
100
AcDbEntity
  8
0
 62
   143
100
AcDbLine
 10
107.4180051397088
 20
446.5595450360161
 30
0.0
 11
96.22760110719271
 21
446.5595450360161
 31
0.0
  0
LINE
  5
1967
330
182C
100
AcDbEntity
  8
0
 62
   143
100
AcDbLine
 10
108.218005139709
 20
436.7595450360161
 30
0.0
 11
96.22760110719271
 21
436.7595450360161
 31
0.0
  0
LINE
  5
1968
330
182C
100
AcDbEntity
  8
0
 62
   143
100
AcDbLine
 10
97.22760110719271
 20
445.059545036016
 30
0.0
 11
97.22760110719271
 21
438.259545036016
 31
0.0
  0
INSERT
  5
1969
330
182C
100
AcDbEntity
  8
0
 62
   143
100
AcDbBlockReference
  2
_DOT
 10
97.22760110719271
 20
446.5595450360161
 30
0.0
 41
1.5
 42
1.5
 43
1.5
 50
90.0
  0
INSERT
  5
196A
330
182C
100
AcDbEntity
  8
0
 62
   143
100
AcDbBlockReference
  2
_DOT
 10
97.22760110719271
 20
436.7595450360161
 30
0.0
 41
1.5
 42
1.5
 43
1.5
 50
270.0
  0
MTEXT
  5
196B
330
182C
100
AcDbEntity
  8
0
 62
     7
100
AcDbMText
 10
93.22760110719263
 20
441.6595450360161
 30
0.0
 40
5.0
 41
0.0
 71
     5
 72
     1
  1
10
  7
ｺﾞｼｯｸ
 11
0.0000000000000001
 21
1.0
 31
0.0
 73
     1
 44
1.0
1001
ACAD
1000
MTEXTBEGIN
1070
    73
1070
     1
1070
    44
1040
1.0
1070
    74
1070
     0
1000
MTEXTEND
  0
POINT
  5
196C
330
182C
100
AcDbEntity
  8
Defpoints
 62
     0
100
AcDbPoint
 10
110.4180051397088
 20
446.5595450360161
 30
0.0
  0
POINT
  5
196D
330
182C
100
AcDbEntity
  8
Defpoints
 62
     0
100
AcDbPoint
 10
111.218005139709
 20
436.7595450360161
 30
0.0
  0
POINT
  5
196E
330
182C
100
AcDbEntity
  8
Defpoints
 62
     0
100
AcDbPoint
 10
97.22760110719271
 20
436.7595450360161
 30
0.0
  0
ENDBLK
  5
1837
330
182C
100
AcDbEntity
  8
0
100
AcDbBlockEnd
  0
BLOCK
  5
1842
330
1838
100
AcDbEntity
  8
0
100
AcDbBlockBegin
  2
*D187
 70
     1
 10
0.0
 20
0.0
 30
0.0
  3
*D187
  1

  0
LINE
  5
196F
330
1838
100
AcDbEntity
  8
0
 62
   143
100
AcDbLine
 10
107.4180051397088
 20
446.5595450360161
 30
0.0
 11
80.42856653681246
 21
446.5595450360161
 31
0.0
  0
LINE
  5
1970
330
1838
100
AcDbEntity
  8
0
 62
   143
100
AcDbLine
 10
121.4180051397093
 20
430.759545036016
 30
0.0
 11
80.42856653681246
 21
430.759545036016
 31
0.0
  0
LINE
  5
1971
330
1838
100
AcDbEntity
  8
0
 62
   143
100
AcDbLine
 10
81.42856653681247
 20
445.059545036016
 30
0.0
 11
81.42856653681247
 21
432.2595450360161
 31
0.0
  0
INSERT
  5
1972
330
1838
100
AcDbEntity
  8
0
 62
   143
100
AcDbBlockReference
  2
_DOT
 10
81.42856653681247
 20
446.5595450360161
 30
0.0
 41
1.5
 42
1.5
 43
1.5
 50
90.0
  0
INSERT
  5
1973
330
1838
100
AcDbEntity
  8
0
 62
   143
100
AcDbBlockReference
  2
_DOT
 10
81.42856653681247
 20
430.759545036016
 30
0.0
 41
1.5
 42
1.5
 43
1.5
 50
270.0
  0
MTEXT
  5
1974
330
1838
100
AcDbEntity
  8
0
 62
     7
100
AcDbMText
 10
76.83197562772149
 20
438.659545036016
 30
0.0
 40
5.0
 41
0.0
 71
     5
 72
     1
  1
(  )
  7
ｺﾞｼｯｸ
 11
0.0000000000000001
 21
1.0
 31
0.0
 73
     1
 44
1.0
1001
ACAD
1000
MTEXTBEGIN
1070
    73
1070
     1
1070
    44
1040
1.0
1070
    74
1070
     0
1000
MTEXTEND
  0
POINT
  5
1975
330
1838
100
AcDbEntity
  8
Defpoints
 62
     0
100
AcDbPoint
 10
110.4180051397088
 20
446.5595450360161
 30
0.0
  0
POINT
  5
1976
330
1838
100
AcDbEntity
  8
Defpoints
 62
     0
100
AcDbPoint
 10
124.4180051397093
 20
430.759545036016
 30
0.0
  0
POINT
  5
1977
330
1838
100
AcDbEntity
  8
Defpoints
 62
     0
100
AcDbPoint
 10
81.42856653681247
 20
430.759545036016
 30
0.0
  0
ENDBLK
  5
1843
330
1838
100
AcDbEntity
  8
0
100
AcDbBlockEnd
  0
BLOCK
  5
184E
330
1844
100
AcDbEntity
  8
0
100
AcDbBlockBegin
  2
*D188
 70
     1
 10
0.0
 20
0.0
 30
0.0
  3
*D188
  1

  0
LINE
  5
1978
330
1844
100
AcDbEntity
  8
0
 62
   143
100
AcDbLine
 10
121.4180051397093
 20
430.759545036016
 30
0.0
 11
80.42856653681248
 21
430.759545036016
 31
0.0
  0
LINE
  5
1979
330
1844
100
AcDbEntity
  8
0
 62
   143
100
AcDbLine
 10
108.7180051397095
 20
385.7595450360161
 30
0.0
 11
80.42856653681246
 21
385.7595450360161
 31
0.0
  0
LINE
  5
197A
330
1844
100
AcDbEntity
  8
0
 62
   143
100
AcDbLine
 10
81.42856653681247
 20
429.2595450360161
 30
0.0
 11
81.42856653681247
 21
387.2595450360161
 31
0.0
  0
INSERT
  5
197B
330
1844
100
AcDbEntity
  8
0
 62
   143
100
AcDbBlockReference
  2
_DOT
 10
81.42856653681247
 20
430.759545036016
 30
0.0
 41
1.5
 42
1.5
 43
1.5
 50
90.0
  0
INSERT
  5
197C
330
1844
100
AcDbEntity
  8
0
 62
   143
100
AcDbBlockReference
  2
_DOT
 10
81.42856653681247
 20
385.7595450360161
 30
0.0
 41
1.5
 42
1.5
 43
1.5
 50
270.0
  0
MTEXT
  5
197D
330
1844
100
AcDbEntity
  8
0
 62
     7
100
AcDbMText
 10
77.42856653681241
 20
408.2595450360161
 30
0.0
 40
5.0
 41
0.0
 71
     5
 72
     1
  1
45
  7
ｺﾞｼｯｸ
 11
0.0000000000000001
 21
1.0
 31
0.0
 73
     1
 44
1.0
1001
ACAD
1000
MTEXTBEGIN
1070
    73
1070
     1
1070
    44
1040
1.0
1070
    74
1070
     0
1000
MTEXTEND
  0
POINT
  5
197E
330
1844
100
AcDbEntity
  8
Defpoints
 62
     0
100
AcDbPoint
 10
124.4180051397093
 20
430.759545036016
 30
0.0
  0
POINT
  5
197F
330
1844
100
AcDbEntity
  8
Defpoints
 62
     0
100
AcDbPoint
 10
111.7180051397095
 20
385.7595450360161
 30
0.0
  0
POINT
  5
1980
330
1844
100
AcDbEntity
  8
Defpoints
 62
     0
100
AcDbPoint
 10
81.42856653681247
 20
385.7595450360161
 30
0.0
  0
ENDBLK
  5
184F
330
1844
100
AcDbEntity
  8
0
100
AcDbBlockEnd
  0
BLOCK
  5
185A
330
1850
100
AcDbEntity
  8
0
100
AcDbBlockBegin
  2
*D189
 70
     1
 10
0.0
 20
0.0
 30
0.0
  3
*D189
  1

  0
LINE
  5
1981
330
1850
100
AcDbEntity
  8
0
 62
   143
100
AcDbLine
 10
109.9180051397088
 20
449.059545036016
 30
0.0
 11
109.9180051397088
 21
482.5691735268701
 31
0.0
  0
LINE
  5
1982
330
1850
100
AcDbEntity
  8
0
 62
   143
100
AcDbLine
 10
133.9180051397084
 20
449.059545036016
 30
0.0
 11
133.9180051397084
 21
482.5691735268701
 31
0.0
  0
LINE
  5
1983
330
1850
100
AcDbEntity
  8
0
 62
   143
100
AcDbLine
 10
111.4180051397088
 20
481.5691735268701
 30
0.0
 11
132.4180051397084
 21
481.5691735268701
 31
0.0
  0
INSERT
  5
1984
330
1850
100
AcDbEntity
  8
0
 62
   143
100
AcDbBlockReference
  2
_DOT
 10
109.9180051397088
 20
481.5691735268701
 30
0.0
 41
1.5
 42
1.5
 43
1.5
 50
180.0
  0
INSERT
  5
1985
330
1850
100
AcDbEntity
  8
0
 62
   143
100
AcDbBlockReference
  2
_DOT
 10
133.9180051397084
 20
481.5691735268701
 30
0.0
 41
1.5
 42
1.5
 43
1.5
  0
MTEXT
  5
1986
330
1850
100
AcDbEntity
  8
0
 62
     7
100
AcDbMText
 10
121.9180051397086
 20
485.5691735268701
 30
0.0
 40
5.0
 41
0.0
 71
     5
 72
     1
  1
24
  7
ｺﾞｼｯｸ
 73
     1
 44
1.0
1001
ACAD
1000
MTEXTBEGIN
1070
    73
1070
     1
1070
    44
1040
1.0
1070
    74
1070
     0
1000
MTEXTEND
  0
POINT
  5
1987
330
1850
100
AcDbEntity
  8
Defpoints
 62
     0
100
AcDbPoint
 10
109.9180051397088
 20
446.059545036016
 30
0.0
  0
POINT
  5
1988
330
1850
100
AcDbEntity
  8
Defpoints
 62
     0
100
AcDbPoint
 10
133.9180051397084
 20
446.059545036016
 30
0.0
  0
POINT
  5
1989
330
1850
100
AcDbEntity
  8
Defpoints
 62
     0
100
AcDbPoint
 10
133.9180051397084
 20
481.5691735268701
 30
0.0
  0
ENDBLK
  5
185B
330
1850
100
AcDbEntity
  8
0
100
AcDbBlockEnd
  0
BLOCK
  5
1866
330
185C
100
AcDbEntity
  8
0
100
AcDbBlockBegin
  2
*D190
 70
     1
 10
0.0
 20
0.0
 30
0.0
  3
*D190
  1

  0
LINE
  5
198A
330
185C
100
AcDbEntity
  8
0
 62
   143
100
AcDbLine
 10
108.7180051397095
 20
385.7595450360161
 30
0.0
 11
80.42856653681203
 21
385.7595450360161
 31
0.0
  0
LINE
  5
198B
330
185C
100
AcDbEntity
  8
0
 62
   143
100
AcDbLine
 10
108.7180051397095
 20
225.7595450360161
 30
0.0
 11
80.42856653681202
 21
225.7595450360161
 31
0.0
  0
LINE
  5
198C
330
185C
100
AcDbEntity
  8
0
 62
   143
100
AcDbLine
 10
81.42856653681205
 20
384.2595450360161
 30
0.0
 11
81.42856653681201
 21
227.2595450360161
 31
0.0
  0
INSERT
  5
198D
330
185C
100
AcDbEntity
  8
0
 62
   143
100
AcDbBlockReference
  2
_DOT
 10
81.42856653681205
 20
385.7595450360161
 30
0.0
 41
1.5
 42
1.5
 43
1.5
 50
90.0
  0
INSERT
  5
198E
330
185C
100
AcDbEntity
  8
0
 62
   143
100
AcDbBlockReference
  2
_DOT
 10
81.42856653681201
 20
225.7595450360161
 30
0.0
 41
1.5
 42
1.5
 43
1.5
 50
270.0
  0
MTEXT
  5
198F
330
185C
100
AcDbEntity
  8
0
 62
     7
100
AcDbMText
 10
77.42856653681197
 20
305.7595450360161
 30
0.0
 40
5.0
 41
0.0
 71
     5
 72
     1
  1
40P×N
  7
ｺﾞｼｯｸ
 11
0.0000000000000001
 21
1.0
 31
0.0
 73
     1
 44
1.0
1001
ACAD
1000
MTEXTBEGIN
1070
    73
1070
     1
1070
    44
1040
1.0
1070
    74
1070
     0
1000
MTEXTEND
  0
POINT
  5
1990
330
185C
100
AcDbEntity
  8
Defpoints
 62
     0
100
AcDbPoint
 10
111.7180051397095
 20
385.7595450360161
 30
0.0
  0
POINT
  5
1991
330
185C
100
AcDbEntity
  8
Defpoints
 62
     0
100
AcDbPoint
 10
111.7180051397095
 20
225.7595450360161
 30
0.0
  0
POINT
  5
1992
330
185C
100
AcDbEntity
  8
Defpoints
 62
     0
100
AcDbPoint
 10
81.42856653681201
 20
225.7595450360161
 30
0.0
  0
ENDBLK
  5
1867
330
185C
100
AcDbEntity
  8
0
100
AcDbBlockEnd
  0
BLOCK
  5
1872
330
1868
100
AcDbEntity
  8
0
100
AcDbBlockBegin
  2
*D191
 70
     1
 10
0.0
 20
0.0
 30
0.0
  3
*D191
  1

  0
LINE
  5
1993
330
1868
100
AcDbEntity
  8
0
 62
   143
100
AcDbLine
 10
115.9180051397088
 20
199.9595450360161
 30
0.0
 11
80.42856653681246
 21
199.9595450360161
 31
0.0
  0
LINE
  5
1994
330
1868
100
AcDbEntity
  8
0
 62
   143
100
AcDbLine
 10
107.4180051397088
 20
209.9595450360161
 30
0.0
 11
80.42856653681246
 21
209.9595450360161
 31
0.0
  0
LINE
  5
1995
330
1868
100
AcDbEntity
  8
0
 62
   143
100
AcDbLine
 10
81.42856653681247
 20
201.4595450360161
 30
0.0
 11
81.42856653681247
 21
208.4595450360161
 31
0.0
  0
INSERT
  5
1996
330
1868
100
AcDbEntity
  8
0
 62
   143
100
AcDbBlockReference
  2
_DOT
 10
81.42856653681247
 20
199.9595450360161
 30
0.0
 41
1.5
 42
1.5
 43
1.5
 50
270.0
  0
INSERT
  5
1997
330
1868
100
AcDbEntity
  8
0
 62
   143
100
AcDbBlockReference
  2
_DOT
 10
81.42856653681247
 20
209.9595450360161
 30
0.0
 41
1.5
 42
1.5
 43
1.5
 50
90.0
  0
MTEXT
  5
1998
330
1868
100
AcDbEntity
  8
0
 62
     7
100
AcDbMText
 10
77.42856653681243
 20
204.9595450360162
 30
0.0
 40
5.0
 41
0.0
 71
     5
 72
     1
  1
10
  7
ｺﾞｼｯｸ
 11
0.0000000000000001
 21
1.0
 31
0.0
 73
     1
 44
1.0
1001
ACAD
1000
MTEXTBEGIN
1070
    73
1070
     1
1070
    44
1040
1.0
1070
    74
1070
     0
1000
MTEXTEND
  0
POINT
  5
1999
330
1868
100
AcDbEntity
  8
Defpoints
 62
     0
100
AcDbPoint
 10
118.9180051397088
 20
199.9595450360161
 30
0.0
  0
POINT
  5
199A
330
1868
100
AcDbEntity
  8
Defpoints
 62
     0
100
AcDbPoint
 10
110.4180051397088
 20
209.9595450360161
 30
0.0
  0
POINT
  5
199B
330
1868
100
AcDbEntity
  8
Defpoints
 62
     0
100
AcDbPoint
 10
81.42856653681247
 20
209.9595450360161
 30
0.0
  0
ENDBLK
  5
1873
330
1868
100
AcDbEntity
  8
0
100
AcDbBlockEnd
  0
BLOCK
  5
187E
330
1874
100
AcDbEntity
  8
0
100
AcDbBlockBegin
  2
*D192
 70
     1
 10
0.0
 20
0.0
 30
0.0
  3
*D192
  1

  0
LINE
  5
199C
330
1874
100
AcDbEntity
  8
0
 62
   143
100
AcDbLine
 10
107.4180051397088
 20
209.9595450360161
 30
0.0
 11
96.22760110719267
 21
209.9595450360161
 31
0.0
  0
LINE
  5
199D
330
1874
100
AcDbEntity
  8
0
 62
   143
100
AcDbLine
 10
108.218005139709
 20
219.7595450360161
 30
0.0
 11
96.22760110719267
 21
219.7595450360161
 31
0.0
  0
LINE
  5
199E
330
1874
100
AcDbEntity
  8
0
 62
   143
100
AcDbLine
 10
97.22760110719267
 20
211.4595450360162
 30
0.0
 11
97.22760110719267
 21
218.2595450360161
 31
0.0
  0
INSERT
  5
199F
330
1874
100
AcDbEntity
  8
0
 62
   143
100
AcDbBlockReference
  2
_DOT
 10
97.22760110719267
 20
209.9595450360161
 30
0.0
 41
1.5
 42
1.5
 43
1.5
 50
270.0
  0
INSERT
  5
19A0
330
1874
100
AcDbEntity
  8
0
 62
   143
100
AcDbBlockReference
  2
_DOT
 10
97.22760110719267
 20
219.7595450360161
 30
0.0
 41
1.5
 42
1.5
 43
1.5
 50
90.0
  0
MTEXT
  5
19A1
330
1874
100
AcDbEntity
  8
0
 62
     7
100
AcDbMText
 10
93.22760110719263
 20
214.8595450360166
 30
0.0
 40
5.0
 41
0.0
 71
     5
 72
     1
  1
10
  7
ｺﾞｼｯｸ
 11
0.0000000000000001
 21
1.0
 31
0.0
 73
     1
 44
1.0
1001
ACAD
1000
MTEXTBEGIN
1070
    73
1070
     1
1070
    44
1040
1.0
1070
    74
1070
     0
1000
MTEXTEND
  0
POINT
  5
19A2
330
1874
100
AcDbEntity
  8
Defpoints
 62
     0
100
AcDbPoint
 10
110.4180051397088
 20
209.9595450360161
 30
0.0
  0
POINT
  5
19A3
330
1874
100
AcDbEntity
  8
Defpoints
 62
     0
100
AcDbPoint
 10
111.218005139709
 20
219.7595450360161
 30
0.0
  0
POINT
  5
19A4
330
1874
100
AcDbEntity
  8
Defpoints
 62
     0
100
AcDbPoint
 10
97.22760110719267
 20
219.7595450360161
 30
0.0
  0
ENDBLK
  5
187F
330
1874
100
AcDbEntity
  8
0
100
AcDbBlockEnd
  0
BLOCK
  5
188A
330
1880
100
AcDbEntity
  8
0
100
AcDbBlockBegin
  2
*D193
 70
     1
 10
0.0
 20
0.0
 30
0.0
  3
*D193
  1

  0
LINE
  5
19A5
330
1880
100
AcDbEntity
  8
0
 62
   143
100
AcDbLine
 10
107.4180051397088
 20
209.9595450360161
 30
0.0
 11
80.42856653681246
 21
209.9595450360161
 31
0.0
  0
LINE
  5
19A6
330
1880
100
AcDbEntity
  8
0
 62
   143
100
AcDbLine
 10
108.7180051397095
 20
225.7595450360161
 30
0.0
 11
80.42856653681246
 21
225.7595450360161
 31
0.0
  0
LINE
  5
19A7
330
1880
100
AcDbEntity
  8
0
 62
   143
100
AcDbLine
 10
81.42856653681246
 20
211.4595450360162
 30
0.0
 11
81.42856653681247
 21
224.2595450360161
 31
0.0
  0
INSERT
  5
19A8
330
1880
100
AcDbEntity
  8
0
 62
   143
100
AcDbBlockReference
  2
_DOT
 10
81.42856653681246
 20
209.9595450360161
 30
0.0
 41
1.5
 42
1.5
 43
1.5
 50
270.0
  0
INSERT
  5
19A9
330
1880
100
AcDbEntity
  8
0
 62
   143
100
AcDbBlockReference
  2
_DOT
 10
81.42856653681247
 20
225.7595450360161
 30
0.0
 41
1.5
 42
1.5
 43
1.5
 50
90.0
  0
MTEXT
  5
19AA
330
1880
100
AcDbEntity
  8
0
 62
     7
100
AcDbMText
 10
76.83197562772152
 20
217.8595450360162
 30
0.0
 40
5.0
 41
0.0
 71
     5
 72
     1
  1
(  )
  7
ｺﾞｼｯｸ
 11
0.0000000000000001
 21
1.0
 31
0.0
 73
     1
 44
1.0
1001
ACAD
1000
MTEXTBEGIN
1070
    73
1070
     1
1070
    44
1040
1.0
1070
    74
1070
     0
1000
MTEXTEND
  0
POINT
  5
19AB
330
1880
100
AcDbEntity
  8
Defpoints
 62
     0
100
AcDbPoint
 10
110.4180051397088
 20
209.9595450360161
 30
0.0
  0
POINT
  5
19AC
330
1880
100
AcDbEntity
  8
Defpoints
 62
     0
100
AcDbPoint
 10
111.7180051397095
 20
225.7595450360161
 30
0.0
  0
POINT
  5
19AD
330
1880
100
AcDbEntity
  8
Defpoints
 62
     0
100
AcDbPoint
 10
81.42856653681247
 20
225.7595450360161
 30
0.0
  0
ENDBLK
  5
188B
330
1880
100
AcDbEntity
  8
0
100
AcDbBlockEnd
  0
BLOCK
  5
1896
330
188C
100
AcDbEntity
  8
0
100
AcDbBlockBegin
  2
*D194
 70
     1
 10
0.0
 20
0.0
 30
0.0
  3
*D194
  1

  0
LINE
  5
19AE
330
188C
100
AcDbEntity
  8
0
 62
   143
100
AcDbLine
 10
136.9180051397088
 20
456.559545036016
 30
0.0
 11
158.2504222501921
 21
456.559545036016
 31
0.0
  0
LINE
  5
19AF
330
188C
100
AcDbEntity
  8
0
 62
   143
100
AcDbLine
 10
129.9180051397088
 20
416.759545036016
 30
0.0
 11
158.250422250192
 21
416.759545036016
 31
0.0
  0
LINE
  5
19B0
330
188C
100
AcDbEntity
  8
0
 62
   143
100
AcDbLine
 10
157.2504222501921
 20
455.0595450360161
 30
0.0
 11
157.250422250192
 21
418.259545036016
 31
0.0
  0
INSERT
  5
19B1
330
188C
100
AcDbEntity
  8
0
 62
   143
100
AcDbBlockReference
  2
_DOT
 10
157.2504222501921
 20
456.559545036016
 30
0.0
 41
1.5
 42
1.5
 43
1.5
 50
90.0
  0
INSERT
  5
19B2
330
188C
100
AcDbEntity
  8
0
 62
   143
100
AcDbBlockReference
  2
_DOT
 10
157.250422250192
 20
416.759545036016
 30
0.0
 41
1.5
 42
1.5
 43
1.5
 50
270.0
  0
MTEXT
  5
19B3
330
188C
100
AcDbEntity
  8
0
 62
     7
100
AcDbMText
 10
153.250422250192
 20
436.659545036016
 30
0.0
 40
5.0
 41
0.0
 71
     5
 72
     1
  1
40
  7
ｺﾞｼｯｸ
 11
0.0000000000000001
 21
1.0
 31
0.0
 73
     1
 44
1.0
1001
ACAD
1000
MTEXTBEGIN
1070
    73
1070
     1
1070
    44
1040
1.0
1070
    74
1070
     0
1000
MTEXTEND
  0
POINT
  5
19B4
330
188C
100
AcDbEntity
  8
Defpoints
 62
     0
100
AcDbPoint
 10
133.9180051397088
 20
456.559545036016
 30
0.0
  0
POINT
  5
19B5
330
188C
100
AcDbEntity
  8
Defpoints
 62
     0
100
AcDbPoint
 10
126.9180051397088
 20
416.7595450360161
 30
0.0
  0
POINT
  5
19B6
330
188C
100
AcDbEntity
  8
Defpoints
 62
     0
100
AcDbPoint
 10
157.250422250192
 20
416.759545036016
 30
0.0
  0
ENDBLK
  5
1897
330
188C
100
AcDbEntity
  8
0
100
AcDbBlockEnd
  0
BLOCK
  5
18A2
330
1898
100
AcDbEntity
  8
0
100
AcDbBlockBegin
  2
*D195
 70
     1
 10
0.0
 20
0.0
 30
0.0
  3
*D195
  1

  0
LINE
  5
19B7
330
1898
100
AcDbEntity
  8
0
 62
   143
100
AcDbLine
 10
115.9180051397088
 20
456.559545036016
 30
0.0
 11
60.0641045376579
 21
456.559545036016
 31
0.0
  0
LINE
  5
19B8
330
1898
100
AcDbEntity
  8
0
 62
   143
100
AcDbLine
 10
115.9180051397088
 20
199.9595450360161
 30
0.0
 11
60.06410453765784
 21
199.9595450360162
 31
0.0
  0
LINE
  5
19B9
330
1898
100
AcDbEntity
  8
0
 62
   143
100
AcDbLine
 10
61.06410453765789
 20
455.0595450360161
 30
0.0
 11
61.06410453765784
 21
201.4595450360162
 31
0.0
  0
INSERT
  5
19BA
330
1898
100
AcDbEntity
  8
0
 62
   143
100
AcDbBlockReference
  2
_DOT
 10
61.06410453765789
 20
456.559545036016
 30
0.0
 41
1.5
 42
1.5
 43
1.5
 50
90.0
  0
INSERT
  5
19BB
330
1898
100
AcDbEntity
  8
0
 62
   143
100
AcDbBlockReference
  2
_DOT
 10
61.06410453765784
 20
199.9595450360162
 30
0.0
 41
1.5
 42
1.5
 43
1.5
 50
270.0
  0
MTEXT
  5
19BC
330
1898
100
AcDbEntity
  8
0
 62
     7
100
AcDbMText
 10
57.06410453765782
 20
328.2595450360161
 30
0.0
 40
5.0
 41
0.0
 71
     5
 72
     1
  1
MH
  7
ｺﾞｼｯｸ
 11
0.0000000000000001
 21
1.0
 31
0.0
 73
     1
 44
1.0
1001
ACAD
1000
MTEXTBEGIN
1070
    73
1070
     1
1070
    44
1040
1.0
1070
    74
1070
     0
1000
MTEXTEND
  0
POINT
  5
19BD
330
1898
100
AcDbEntity
  8
Defpoints
 62
     0
100
AcDbPoint
 10
118.9180051397088
 20
456.559545036016
 30
0.0
  0
POINT
  5
19BE
330
1898
100
AcDbEntity
  8
Defpoints
 62
     0
100
AcDbPoint
 10
118.9180051397088
 20
199.9595450360161
 30
0.0
  0
POINT
  5
19BF
330
1898
100
AcDbEntity
  8
Defpoints
 62
     0
100
AcDbPoint
 10
61.06410453765784
 20
199.9595450360162
 30
0.0
  0
ENDBLK
  5
18A3
330
1898
100
AcDbEntity
  8
0
100
AcDbBlockEnd
  0
BLOCK
  5
18B0
330
18A4
100
AcDbEntity
  8
0
100
AcDbBlockBegin
  2
*D196
 70
     1
 10
0.0
 20
0.0
 30
0.0
  3
*D196
  1

  0
LINE
  5
19C0
330
18A4
100
AcDbEntity
  8
0
 62
   143
100
AcDbLine
 10
110.9180051397093
 20
343.2595450360161
 30
0.0
 11
110.9180051397093
 21
332.8320040471699
 31
0.0
  0
LINE
  5
19C1
330
18A4
100
AcDbEntity
  8
0
 62
   143
100
AcDbLine
 10
109.9180051397088
 20
343.2595450360161
 30
0.0
 11
109.9180051397088
 21
332.8320040471699
 31
0.0
  0
LINE
  5
19C2
330
18A4
100
AcDbEntity
  8
0
 62
   143
100
AcDbLine
 10
112.4180051397093
 20
333.8320040471699
 30
0.0
 11
113.9180051397093
 21
333.8320040471699
 31
0.0
  0
LINE
  5
19C3
330
18A4
100
AcDbEntity
  8
0
 62
   143
100
AcDbLine
 10
108.4180051397088
 20
333.8320040471699
 30
0.0
 11
102.412323321527
 21
333.8320040471699
 31
0.0
  0
LINE
  5
19C4
330
18A4
100
AcDbEntity
  8
0
 62
   143
100
AcDbLine
 10
110.9180051397093
 20
333.8320040471699
 30
0.0
 11
109.9180051397088
 21
333.8320040471699
 31
0.0
  0
INSERT
  5
19C5
330
18A4
100
AcDbEntity
  8
0
 62
   143
100
AcDbBlockReference
  2
_DOT
 10
110.9180051397093
 20
333.8320040471699
 30
0.0
 41
1.5
 42
1.5
 43
1.5
 50
180.0
  0
INSERT
  5
19C6
330
18A4
100
AcDbEntity
  8
0
 62
   143
100
AcDbBlockReference
  2
_DOT
 10
109.9180051397088
 20
333.8320040471699
 30
0.0
 41
1.5
 42
1.5
 43
1.5
  0
MTEXT
  5
19C7
330
18A4
100
AcDbEntity
  8
0
 62
     7
100
AcDbMText
 10
104.6651642306179
 20
337.8320040471699
 30
0.0
 40
5.0
 41
0.0
 71
     5
 72
     1
  1
1
  7
ｺﾞｼｯｸ
 73
     1
 44
1.0
1001
ACAD
1000
MTEXTBEGIN
1070
    73
1070
     1
1070
    44
1040
1.0
1070
    74
1070
     0
1000
MTEXTEND
  0
POINT
  5
19C8
330
18A4
100
AcDbEntity
  8
Defpoints
 62
     0
100
AcDbPoint
 10
110.9180051397093
 20
346.2595450360161
 30
0.0
  0
POINT
  5
19C9
330
18A4
100
AcDbEntity
  8
Defpoints
 62
     0
100
AcDbPoint
 10
109.9180051397088
 20
346.2595450360161
 30
0.0
  0
POINT
  5
19CA
330
18A4
100
AcDbEntity
  8
Defpoints
 62
     0
100
AcDbPoint
 10
109.9180051397088
 20
333.8320040471699
 30
0.0
  0
ENDBLK
  5
18B1
330
18A4
100
AcDbEntity
  8
0
100
AcDbBlockEnd
  0
BLOCK
  5
18BC
330
18B2
100
AcDbEntity
  8
0
100
AcDbBlockBegin
  2
*D197
 70
     1
 10
0.0
 20
0.0
 30
0.0
  3
*D197
  1

  0
LINE
  5
19CB
330
18B2
100
AcDbEntity
  8
0
 62
   143
100
AcDbLine
 10
110.9180051397093
 20
343.2595450360161
 30
0.0
 11
110.9180051397093
 21
332.8320040471699
 31
0.0
  0
LINE
  5
19CC
330
18B2
100
AcDbEntity
  8
0
 62
   143
100
AcDbLine
 10
125.9180051397093
 20
343.2595450360161
 30
0.0
 11
125.9180051397093
 21
332.8320040471699
 31
0.0
  0
LINE
  5
19CD
330
18B2
100
AcDbEntity
  8
0
 62
   143
100
AcDbLine
 10
112.4180051397093
 20
333.8320040471699
 30
0.0
 11
124.4180051397093
 21
333.8320040471699
 31
0.0
  0
INSERT
  5
19CE
330
18B2
100
AcDbEntity
  8
0
 62
   143
100
AcDbBlockReference
  2
_DOT
 10
110.9180051397093
 20
333.8320040471699
 30
0.0
 41
1.5
 42
1.5
 43
1.5
 50
180.0
  0
INSERT
  5
19CF
330
18B2
100
AcDbEntity
  8
0
 62
   143
100
AcDbBlockReference
  2
_DOT
 10
125.9180051397093
 20
333.8320040471699
 30
0.0
 41
1.5
 42
1.5
 43
1.5
  0
MTEXT
  5
19D0
330
18B2
100
AcDbEntity
  8
0
 62
     7
100
AcDbMText
 10
118.4180051397093
 20
337.8320040471699
 30
0.0
 40
5.0
 41
0.0
 71
     5
 72
     1
  1
15
  7
ｺﾞｼｯｸ
 73
     1
 44
1.0
1001
ACAD
1000
MTEXTBEGIN
1070
    73
1070
     1
1070
    44
1040
1.0
1070
    74
1070
     0
1000
MTEXTEND
  0
POINT
  5
19D1
330
18B2
100
AcDbEntity
  8
Defpoints
 62
     0
100
AcDbPoint
 10
110.9180051397093
 20
346.2595450360161
 30
0.0
  0
POINT
  5
19D2
330
18B2
100
AcDbEntity
  8
Defpoints
 62
     0
100
AcDbPoint
 10
125.9180051397093
 20
346.2595450360161
 30
0.0
  0
POINT
  5
19D3
330
18B2
100
AcDbEntity
  8
Defpoints
 62
     0
100
AcDbPoint
 10
125.9180051397093
 20
333.8320040471699
 30
0.0
  0
ENDBLK
  5
18BD
330
18B2
100
AcDbEntity
  8
0
100
AcDbBlockEnd
  0
BLOCK
  5
18C8
330
18BE
100
AcDbEntity
  8
0
100
AcDbBlockBegin
  2
*D198
 70
     1
 10
0.0
 20
0.0
 30
0.0
  3
*D198
  1

  0
LINE
  5
19D4
330
18BE
100
AcDbEntity
  8
0
 62
   143
100
AcDbLine
 10
125.9180051397093
 20
343.2595450360161
 30
0.0
 11
125.9180051397093
 21
332.8320040471699
 31
0.0
  0
LINE
  5
19D5
330
18BE
100
AcDbEntity
  8
0
 62
   143
100
AcDbLine
 10
133.9180051397088
 20
343.2595450360161
 30
0.0
 11
133.9180051397088
 21
332.8320040471699
 31
0.0
  0
LINE
  5
19D6
330
18BE
100
AcDbEntity
  8
0
 62
   143
100
AcDbLine
 10
127.4180051397093
 20
333.8320040471699
 30
0.0
 11
132.4180051397088
 21
333.8320040471699
 31
0.0
  0
INSERT
  5
19D7
330
18BE
100
AcDbEntity
  8
0
 62
   143
100
AcDbBlockReference
  2
_DOT
 10
125.9180051397093
 20
333.8320040471699
 30
0.0
 41
1.5
 42
1.5
 43
1.5
 50
180.0
  0
INSERT
  5
19D8
330
18BE
100
AcDbEntity
  8
0
 62
   143
100
AcDbBlockReference
  2
_DOT
 10
133.9180051397088
 20
333.8320040471699
 30
0.0
 41
1.5
 42
1.5
 43
1.5
  0
MTEXT
  5
19D9
330
18BE
100
AcDbEntity
  8
0
 62
     7
100
AcDbMText
 10
129.918005139709
 20
337.8320040471699
 30
0.0
 40
5.0
 41
0.0
 71
     5
 72
     1
  1
8
  7
ｺﾞｼｯｸ
 73
     1
 44
1.0
1001
ACAD
1000
MTEXTBEGIN
1070
    73
1070
     1
1070
    44
1040
1.0
1070
    74
1070
     0
1000
MTEXTEND
  0
POINT
  5
19DA
330
18BE
100
AcDbEntity
  8
Defpoints
 62
     0
100
AcDbPoint
 10
125.9180051397093
 20
346.2595450360161
 30
0.0
  0
POINT
  5
19DB
330
18BE
100
AcDbEntity
  8
Defpoints
 62
     0
100
AcDbPoint
 10
133.9180051397088
 20
346.2595450360161
 30
0.0
  0
POINT
  5
19DC
330
18BE
100
AcDbEntity
  8
Defpoints
 62
     0
100
AcDbPoint
 10
133.9180051397088
 20
333.8320040471699
 30
0.0
  0
ENDBLK
  5
18C9
330
18BE
100
AcDbEntity
  8
0
100
AcDbBlockEnd
  0
BLOCK
  5
18D4
330
18CA
100
AcDbEntity
  8
0
100
AcDbBlockBegin
  2
*D199
 70
     1
 10
0.0
 20
0.0
 30
0.0
  3
*D199
  1

  0
LINE
  5
19DD
330
18CA
100
AcDbEntity
  8
0
 62
   143
100
AcDbLine
 10
236.2504288801247
 20
442.8649804780543
 30
0.0
 11
236.2504288801247
 21
464.0990493094196
 31
0.0
  0
LINE
  5
19DE
330
18CA
100
AcDbEntity
  8
0
 62
   143
100
AcDbLine
 10
348.4415121949764
 20
442.8649804780543
 30
0.0
 11
348.4415121949764
 21
464.0990493094196
 31
0.0
  0
LINE
  5
19DF
330
18CA
100
AcDbEntity
  8
0
 62
   143
100
AcDbLine
 10
237.7504288801247
 20
463.0990493094195
 30
0.0
 11
346.9415121949765
 21
463.0990493094195
 31
0.0
  0
INSERT
  5
19E0
330
18CA
100
AcDbEntity
  8
0
 62
   143
100
AcDbBlockReference
  2
_DOT
 10
236.2504288801247
 20
463.0990493094195
 30
0.0
 41
1.5
 42
1.5
 43
1.5
 50
180.0
  0
INSERT
  5
19E1
330
18CA
100
AcDbEntity
  8
0
 62
   143
100
AcDbBlockReference
  2
_DOT
 10
348.4415121949764
 20
463.0990493094195
 30
0.0
 41
1.5
 42
1.5
 43
1.5
  0
MTEXT
  5
19E2
330
18CA
100
AcDbEntity
  8
0
 62
     7
100
AcDbMText
 10
292.3459705375506
 20
467.0990493094195
 30
0.0
 40
5.0
 41
0.0
 71
     5
 72
     1
  1
MW
  7
ｺﾞｼｯｸ
 73
     1
 44
1.0
1001
ACAD
1000
MTEXTBEGIN
1070
    73
1070
     1
1070
    44
1040
1.0
1070
    74
1070
     0
1000
MTEXTEND
  0
POINT
  5
19E3
330
18CA
100
AcDbEntity
  8
Defpoints
 62
     0
100
AcDbPoint
 10
236.2504288801247
 20
439.8649804780543
 30
0.0
  0
POINT
  5
19E4
330
18CA
100
AcDbEntity
  8
Defpoints
 62
     0
100
AcDbPoint
 10
348.4415121949764
 20
439.8649804780543
 30
0.0
  0
POINT
  5
19E5
330
18CA
100
AcDbEntity
  8
Defpoints
 62
     0
100
AcDbPoint
 10
348.4415121949764
 20
463.0990493094195
 30
0.0
  0
ENDBLK
  5
18D5
330
18CA
100
AcDbEntity
  8
0
100
AcDbBlockEnd
  0
BLOCK
  5
18E0
330
18D6
100
AcDbEntity
  8
0
100
AcDbBlockBegin
  2
*D200
 70
     1
 10
0.0
 20
0.0
 30
0.0
  3
*D200
  1

  0
LINE
  5
19E6
330
18D6
100
AcDbEntity
  8
0
 62
   143
100
AcDbLine
 10
233.2504288801247
 20
439.8649804780543
 30
0.0
 11
206.8611817089059
 21
439.8649804780543
 31
0.0
  0
LINE
  5
19E7
330
18D6
100
AcDbEntity
  8
0
 62
   143
100
AcDbLine
 10
233.2504288801247
 20
380.6149804780543
 30
0.0
 11
206.8611817089059
 21
380.6149804780543
 31
0.0
  0
LINE
  5
19E8
330
18D6
100
AcDbEntity
  8
0
 62
   143
100
AcDbLine
 10
207.8611817089059
 20
438.3649804780543
 30
0.0
 11
207.8611817089059
 21
382.1149804780544
 31
0.0
  0
INSERT
  5
19E9
330
18D6
100
AcDbEntity
  8
0
 62
   143
100
AcDbBlockReference
  2
_DOT
 10
207.8611817089059
 20
439.8649804780543
 30
0.0
 41
1.5
 42
1.5
 43
1.5
 50
90.0
  0
INSERT
  5
19EA
330
18D6
100
AcDbEntity
  8
0
 62
   143
100
AcDbBlockReference
  2
_DOT
 10
207.8611817089059
 20
380.6149804780543
 30
0.0
 41
1.5
 42
1.5
 43
1.5
 50
270.0
  0
MTEXT
  5
19EB
330
18D6
100
AcDbEntity
  8
0
 62
     7
100
AcDbMText
 10
203.8611817089058
 20
410.2399804780544
 30
0.0
 40
5.0
 41
0.0
 71
     5
 72
     1
  1
MH
  7
ｺﾞｼｯｸ
 11
0.0000000000000001
 21
1.0
 31
0.0
 73
     1
 44
1.0
1001
ACAD
1000
MTEXTBEGIN
1070
    73
1070
     1
1070
    44
1040
1.0
1070
    74
1070
     0
1000
MTEXTEND
  0
POINT
  5
19EC
330
18D6
100
AcDbEntity
  8
Defpoints
 62
     0
100
AcDbPoint
 10
236.2504288801247
 20
439.8649804780543
 30
0.0
  0
POINT
  5
19ED
330
18D6
100
AcDbEntity
  8
Defpoints
 62
     0
100
AcDbPoint
 10
236.2504288801247
 20
380.6149804780543
 30
0.0
  0
POINT
  5
19EE
330
18D6
100
AcDbEntity
  8
Defpoints
 62
     0
100
AcDbPoint
 10
207.8611817089059
 20
380.6149804780543
 30
0.0
  0
ENDBLK
  5
18E1
330
18D6
100
AcDbEntity
  8
0
100
AcDbBlockEnd
  0
BLOCK
  5
18EC
330
18E2
100
AcDbEntity
  8
0
100
AcDbBlockBegin
  2
*D201
 70
     1
 10
0.0
 20
0.0
 30
0.0
  3
*D201
  1

  0
LINE
  5
19EF
330
18E2
100
AcDbEntity
  8
0
 62
   143
100
AcDbLine
 10
225.4755956751064
 20
232.0247696217239
 30
0.0
 11
203.7624109870953
 21
232.0247696217239
 31
0.0
  0
LINE
  5
19F0
330
18E2
100
AcDbEntity
  8
0
 62
   143
100
AcDbLine
 10
215.9755956751064
 20
224.0247696217239
 30
0.0
 11
203.7624109870953
 21
224.0247696217239
 31
0.0
  0
LINE
  5
19F1
330
18E2
100
AcDbEntity
  8
0
 62
   143
100
AcDbLine
 10
204.7624109870954
 20
230.5247696217239
 30
0.0
 11
204.7624109870954
 21
225.5247696217239
 31
0.0
  0
INSERT
  5
19F2
330
18E2
100
AcDbEntity
  8
0
 62
   143
100
AcDbBlockReference
  2
_DOT
 10
204.7624109870954
 20
232.0247696217239
 30
0.0
 41
1.5
 42
1.5
 43
1.5
 50
90.0
  0
INSERT
  5
19F3
330
18E2
100
AcDbEntity
  8
0
 62
   143
100
AcDbBlockReference
  2
_DOT
 10
204.7624109870954
 20
224.0247696217239
 30
0.0
 41
1.5
 42
1.5
 43
1.5
 50
270.0
  0
MTEXT
  5
19F4
330
18E2
100
AcDbEntity
  8
0
 62
     7
100
AcDbMText
 10
200.7624109870953
 20
228.0247696217239
 30
0.0
 40
5.0
 41
0.0
 71
     5
 72
     1
  1
8
  7
ｺﾞｼｯｸ
 11
0.0000000000000001
 21
1.0
 31
0.0
 73
     1
 44
1.0
1001
ACAD
1000
MTEXTBEGIN
1070
    73
1070
     1
1070
    44
1040
1.0
1070
    74
1070
     0
1000
MTEXTEND
  0
POINT
  5
19F5
330
18E2
100
AcDbEntity
  8
Defpoints
 62
     0
100
AcDbPoint
 10
228.4755956751064
 20
232.0247696217239
 30
0.0
  0
POINT
  5
19F6
330
18E2
100
AcDbEntity
  8
Defpoints
 62
     0
100
AcDbPoint
 10
218.9755956751064
 20
224.0247696217239
 30
0.0
  0
POINT
  5
19F7
330
18E2
100
AcDbEntity
  8
Defpoints
 62
     0
100
AcDbPoint
 10
204.7624109870954
 20
224.0247696217239
 30
0.0
  0
ENDBLK
  5
18ED
330
18E2
100
AcDbEntity
  8
0
100
AcDbBlockEnd
  0
BLOCK
  5
18F8
330
18EE
100
AcDbEntity
  8
0
100
AcDbBlockBegin
  2
*D202
 70
     1
 10
0.0
 20
0.0
 30
0.0
  3
*D202
  1

  0
LINE
  5
19F8
330
18EE
100
AcDbEntity
  8
0
 62
   143
100
AcDbLine
 10
215.9755956751064
 20
224.0247696217239
 30
0.0
 11
203.7624109870953
 21
224.0247696217239
 31
0.0
  0
LINE
  5
19F9
330
18EE
100
AcDbEntity
  8
0
 62
   143
100
AcDbLine
 10
215.9755956751064
 20
216.0247696217238
 30
0.0
 11
203.7624109870953
 21
216.0247696217238
 31
0.0
  0
LINE
  5
19FA
330
18EE
100
AcDbEntity
  8
0
 62
   143
100
AcDbLine
 10
204.7624109870954
 20
222.5247696217238
 30
0.0
 11
204.7624109870954
 21
217.5247696217239
 31
0.0
  0
INSERT
  5
19FB
330
18EE
100
AcDbEntity
  8
0
 62
   143
100
AcDbBlockReference
  2
_DOT
 10
204.7624109870954
 20
224.0247696217239
 30
0.0
 41
1.5
 42
1.5
 43
1.5
 50
90.0
  0
INSERT
  5
19FC
330
18EE
100
AcDbEntity
  8
0
 62
   143
100
AcDbBlockReference
  2
_DOT
 10
204.7624109870954
 20
216.0247696217238
 30
0.0
 41
1.5
 42
1.5
 43
1.5
 50
270.0
  0
MTEXT
  5
19FD
330
18EE
100
AcDbEntity
  8
0
 62
     7
100
AcDbMText
 10
200.7624109870953
 20
220.0247696217239
 30
0.0
 40
5.0
 41
0.0
 71
     5
 72
     1
  1
8
  7
ｺﾞｼｯｸ
 11
0.0000000000000001
 21
1.0
 31
0.0
 73
     1
 44
1.0
1001
ACAD
1000
MTEXTBEGIN
1070
    73
1070
     1
1070
    44
1040
1.0
1070
    74
1070
     0
1000
MTEXTEND
  0
POINT
  5
19FE
330
18EE
100
AcDbEntity
  8
Defpoints
 62
     0
100
AcDbPoint
 10
218.9755956751064
 20
224.0247696217239
 30
0.0
  0
POINT
  5
19FF
330
18EE
100
AcDbEntity
  8
Defpoints
 62
     0
100
AcDbPoint
 10
218.9755956751064
 20
216.0247696217238
 30
0.0
  0
POINT
  5
1A00
330
18EE
100
AcDbEntity
  8
Defpoints
 62
     0
100
AcDbPoint
 10
204.7624109870954
 20
216.0247696217238
 30
0.0
  0
ENDBLK
  5
18F9
330
18EE
100
AcDbEntity
  8
0
100
AcDbBlockEnd
  0
BLOCK
  5
1904
330
18FA
100
AcDbEntity
  8
0
100
AcDbBlockBegin
  2
*D203
 70
     1
 10
0.0
 20
0.0
 30
0.0
  3
*D203
  1

  0
LINE
  5
1A01
330
18FA
100
AcDbEntity
  8
0
 62
   143
100
AcDbLine
 10
225.4755956751064
 20
208.0247696217238
 30
0.0
 11
203.7624109870953
 21
208.0247696217238
 31
0.0
  0
LINE
  5
1A02
330
18FA
100
AcDbEntity
  8
0
 62
   143
100
AcDbLine
 10
215.9755956751064
 20
216.0247696217238
 30
0.0
 11
203.7624109870953
 21
216.0247696217238
 31
0.0
  0
LINE
  5
1A03
330
18FA
100
AcDbEntity
  8
0
 62
   143
100
AcDbLine
 10
204.7624109870954
 20
209.5247696217239
 30
0.0
 11
204.7624109870954
 21
214.5247696217239
 31
0.0
  0
INSERT
  5
1A04
330
18FA
100
AcDbEntity
  8
0
 62
   143
100
AcDbBlockReference
  2
_DOT
 10
204.7624109870954
 20
208.0247696217238
 30
0.0
 41
1.5
 42
1.5
 43
1.5
 50
270.0
  0
INSERT
  5
1A05
330
18FA
100
AcDbEntity
  8
0
 62
   143
100
AcDbBlockReference
  2
_DOT
 10
204.7624109870954
 20
216.0247696217238
 30
0.0
 41
1.5
 42
1.5
 43
1.5
 50
90.0
  0
MTEXT
  5
1A06
330
18FA
100
AcDbEntity
  8
0
 62
     7
100
AcDbMText
 10
200.7624109870953
 20
212.0247696217239
 30
0.0
 40
5.0
 41
0.0
 71
     5
 72
     1
  1
8
  7
ｺﾞｼｯｸ
 11
0.0000000000000001
 21
1.0
 31
0.0
 73
     1
 44
1.0
1001
ACAD
1000
MTEXTBEGIN
1070
    73
1070
     1
1070
    44
1040
1.0
1070
    74
1070
     0
1000
MTEXTEND
  0
POINT
  5
1A07
330
18FA
100
AcDbEntity
  8
Defpoints
 62
     0
100
AcDbPoint
 10
228.4755956751064
 20
208.0247696217238
 30
0.0
  0
POINT
  5
1A08
330
18FA
100
AcDbEntity
  8
Defpoints
 62
     0
100
AcDbPoint
 10
218.9755956751064
 20
216.0247696217238
 30
0.0
  0
POINT
  5
1A09
330
18FA
100
AcDbEntity
  8
Defpoints
 62
     0
100
AcDbPoint
 10
204.7624109870954
 20
216.0247696217238
 30
0.0
  0
ENDBLK
  5
1905
330
18FA
100
AcDbEntity
  8
0
100
AcDbBlockEnd
  0
BLOCK
  5
1910
330
1906
100
AcDbEntity
  8
0
100
AcDbBlockBegin
  2
*D204
 70
     1
 10
0.0
 20
0.0
 30
0.0
  3
*D204
  1

  0
LINE
  5
1A0A
330
1906
100
AcDbEntity
  8
0
 62
   143
100
AcDbLine
 10
217.9755956751064
 20
226.0247696217239
 30
0.0
 11
217.9755956751064
 21
248.2993387844544
 31
0.0
  0
LINE
  5
1A0B
330
1906
100
AcDbEntity
  8
0
 62
   143
100
AcDbLine
 10
227.9755956751064
 20
234.5247696217239
 30
0.0
 11
227.9755956751064
 21
248.2993387844544
 31
0.0
  0
LINE
  5
1A0C
330
1906
100
AcDbEntity
  8
0
 62
   143
100
AcDbLine
 10
219.4755956751064
 20
247.2993387844545
 30
0.0
 11
226.4755956751064
 21
247.2993387844545
 31
0.0
  0
INSERT
  5
1A0D
330
1906
100
AcDbEntity
  8
0
 62
   143
100
AcDbBlockReference
  2
_DOT
 10
217.9755956751064
 20
247.2993387844545
 30
0.0
 41
1.5
 42
1.5
 43
1.5
 50
180.0
  0
INSERT
  5
1A0E
330
1906
100
AcDbEntity
  8
0
 62
   143
100
AcDbBlockReference
  2
_DOT
 10
227.9755956751064
 20
247.2993387844545
 30
0.0
 41
1.5
 42
1.5
 43
1.5
  0
MTEXT
  5
1A0F
330
1906
100
AcDbEntity
  8
0
 62
     7
100
AcDbMText
 10
222.9755956751064
 20
251.2993387844545
 30
0.0
 40
5.0
 41
0.0
 71
     5
 72
     1
  1
10
  7
ｺﾞｼｯｸ
 73
     1
 44
1.0
1001
ACAD
1000
MTEXTBEGIN
1070
    73
1070
     1
1070
    44
1040
1.0
1070
    74
1070
     0
1000
MTEXTEND
  0
POINT
  5
1A10
330
1906
100
AcDbEntity
  8
Defpoints
 62
     0
100
AcDbPoint
 10
217.9755956751064
 20
223.0247696217239
 30
0.0
  0
POINT
  5
1A11
330
1906
100
AcDbEntity
  8
Defpoints
 62
     0
100
AcDbPoint
 10
227.9755956751064
 20
231.5247696217239
 30
0.0
  0
POINT
  5
1A12
330
1906
100
AcDbEntity
  8
Defpoints
 62
     0
100
AcDbPoint
 10
227.9755956751064
 20
247.2993387844545
 30
0.0
  0
ENDBLK
  5
1911
330
1906
100
AcDbEntity
  8
0
100
AcDbBlockEnd
  0
BLOCK
  5
191C
330
1912
100
AcDbEntity
  8
0
100
AcDbBlockBegin
  2
*D205
 70
     1
 10
0.0
 20
0.0
 30
0.0
  3
*D205
  1

  0
LINE
  5
1A13
330
1912
100
AcDbEntity
  8
0
 62
   143
100
AcDbLine
 10
227.9755956751064
 20
234.5247696217239
 30
0.0
 11
227.9755956751064
 21
248.2993387844544
 31
0.0
  0
LINE
  5
1A14
330
1912
100
AcDbEntity
  8
0
 62
   143
100
AcDbLine
 10
237.7755956751066
 20
233.7247696217238
 30
0.0
 11
237.7755956751066
 21
248.2993387844544
 31
0.0
  0
LINE
  5
1A15
330
1912
100
AcDbEntity
  8
0
 62
   143
100
AcDbLine
 10
229.4755956751064
 20
247.2993387844545
 30
0.0
 11
236.2755956751066
 21
247.2993387844545
 31
0.0
  0
INSERT
  5
1A16
330
1912
100
AcDbEntity
  8
0
 62
   143
100
AcDbBlockReference
  2
_DOT
 10
227.9755956751064
 20
247.2993387844545
 30
0.0
 41
1.5
 42
1.5
 43
1.5
 50
180.0
  0
INSERT
  5
1A17
330
1912
100
AcDbEntity
  8
0
 62
   143
100
AcDbBlockReference
  2
_DOT
 10
237.7755956751066
 20
247.2993387844545
 30
0.0
 41
1.5
 42
1.5
 43
1.5
  0
MTEXT
  5
1A18
330
1912
100
AcDbEntity
  8
0
 62
     7
100
AcDbMText
 10
232.8755956751065
 20
251.2993387844545
 30
0.0
 40
5.0
 41
0.0
 71
     5
 72
     1
  1
10
  7
ｺﾞｼｯｸ
 73
     1
 44
1.0
1001
ACAD
1000
MTEXTBEGIN
1070
    73
1070
     1
1070
    44
1040
1.0
1070
    74
1070
     0
1000
MTEXTEND
  0
POINT
  5
1A19
330
1912
100
AcDbEntity
  8
Defpoints
 62
     0
100
AcDbPoint
 10
227.9755956751064
 20
231.5247696217239
 30
0.0
  0
POINT
  5
1A1A
330
1912
100
AcDbEntity
  8
Defpoints
 62
     0
100
AcDbPoint
 10
237.7755956751066
 20
230.7247696217238
 30
0.0
  0
POINT
  5
1A1B
330
1912
100
AcDbEntity
  8
Defpoints
 62
     0
100
AcDbPoint
 10
237.7755956751066
 20
247.2993387844545
 30
0.0
  0
ENDBLK
  5
191D
330
1912
100
AcDbEntity
  8
0
100
AcDbBlockEnd
  0
BLOCK
  5
1928
330
191E
100
AcDbEntity
  8
0
100
AcDbBlockBegin
  2
*D206
 70
     1
 10
0.0
 20
0.0
 30
0.0
  3
*D206
  1

  0
LINE
  5
1A1C
330
191E
100
AcDbEntity
  8
0
 62
   143
100
AcDbLine
 10
217.9755956751064
 20
205.8455516489157
 30
0.0
 11
217.9755956751064
 21
188.7749985679666
 31
0.0
  0
LINE
  5
1A1D
330
191E
100
AcDbEntity
  8
0
 62
   143
100
AcDbLine
 10
257.7755956751062
 20
212.0247696217238
 30
0.0
 11
257.7755956751062
 21
188.7749985679666
 31
0.0
  0
LINE
  5
1A1E
330
191E
100
AcDbEntity
  8
0
 62
   143
100
AcDbLine
 10
219.4755956751064
 20
189.7749985679666
 30
0.0
 11
256.2755956751062
 21
189.7749985679666
 31
0.0
  0
INSERT
  5
1A1F
330
191E
100
AcDbEntity
  8
0
 62
   143
100
AcDbBlockReference
  2
_DOT
 10
217.9755956751064
 20
189.7749985679666
 30
0.0
 41
1.5
 42
1.5
 43
1.5
 50
180.0
  0
INSERT
  5
1A20
330
191E
100
AcDbEntity
  8
0
 62
   143
100
AcDbBlockReference
  2
_DOT
 10
257.7755956751062
 20
189.7749985679666
 30
0.0
 41
1.5
 42
1.5
 43
1.5
  0
MTEXT
  5
1A21
330
191E
100
AcDbEntity
  8
0
 62
     7
100
AcDbMText
 10
237.8755956751063
 20
193.7749985679666
 30
0.0
 40
5.0
 41
0.0
 71
     5
 72
     1
  1
40
  7
ｺﾞｼｯｸ
 73
     1
 44
1.0
1001
ACAD
1000
MTEXTBEGIN
1070
    73
1070
     1
1070
    44
1040
1.0
1070
    74
1070
     0
1000
MTEXTEND
  0
POINT
  5
1A22
330
191E
100
AcDbEntity
  8
Defpoints
 62
     0
100
AcDbPoint
 10
217.9755956751064
 20
208.8455516489157
 30
0.0
  0
POINT
  5
1A23
330
191E
100
AcDbEntity
  8
Defpoints
 62
     0
100
AcDbPoint
 10
257.7755956751062
 20
215.0247696217239
 30
0.0
  0
POINT
  5
1A24
330
191E
100
AcDbEntity
  8
Defpoints
 62
     0
100
AcDbPoint
 10
257.7755956751062
 20
189.7749985679666
 30
0.0
  0
ENDBLK
  5
1929
330
191E
100
AcDbEntity
  8
0
100
AcDbBlockEnd
  0
BLOCK
  5
1934
330
192A
100
AcDbEntity
  8
0
100
AcDbBlockBegin
  2
*D207
 70
     1
 10
0.0
 20
0.0
 30
0.0
  3
*D207
  1

  0
LINE
  5
1A25
330
192A
100
AcDbEntity
  8
0
 62
   143
100
AcDbLine
 10
350.2896690598691
 20
232.0247696217234
 30
0.0
 11
362.9224673766039
 21
232.0247696217234
 31
0.0
  0
LINE
  5
1A26
330
192A
100
AcDbEntity
  8
0
 62
   143
100
AcDbLine
 10
350.2896690598691
 20
208.0247696217243
 30
0.0
 11
362.9224673766039
 21
208.0247696217243
 31
0.0
  0
LINE
  5
1A27
330
192A
100
AcDbEntity
  8
0
 62
   143
100
AcDbLine
 10
361.9224673766039
 20
230.5247696217234
 30
0.0
 11
361.9224673766039
 21
209.5247696217243
 31
0.0
  0
INSERT
  5
1A28
330
192A
100
AcDbEntity
  8
0
 62
   143
100
AcDbBlockReference
  2
_DOT
 10
361.9224673766039
 20
232.0247696217234
 30
0.0
 41
1.5
 42
1.5
 43
1.5
 50
90.0
  0
INSERT
  5
1A29
330
192A
100
AcDbEntity
  8
0
 62
   143
100
AcDbBlockReference
  2
_DOT
 10
361.9224673766039
 20
208.0247696217243
 30
0.0
 41
1.5
 42
1.5
 43
1.5
 50
270.0
  0
MTEXT
  5
1A2A
330
192A
100
AcDbEntity
  8
0
 62
     7
100
AcDbMText
 10
357.9224673766038
 20
220.0247696217239
 30
0.0
 40
5.0
 41
0.0
 71
     5
 72
     1
  1
24
  7
ｺﾞｼｯｸ
 11
0.0000000000000001
 21
1.0
 31
0.0
 73
     1
 44
1.0
1001
ACAD
1000
MTEXTBEGIN
1070
    73
1070
     1
1070
    44
1040
1.0
1070
    74
1070
     0
1000
MTEXTEND
  0
POINT
  5
1A2B
330
192A
100
AcDbEntity
  8
Defpoints
 62
     0
100
AcDbPoint
 10
347.2896690598691
 20
232.0247696217234
 30
0.0
  0
POINT
  5
1A2C
330
192A
100
AcDbEntity
  8
Defpoints
 62
     0
100
AcDbPoint
 10
347.2896690598691
 20
208.0247696217243
 30
0.0
  0
POINT
  5
1A2D
330
192A
100
AcDbEntity
  8
Defpoints
 62
     0
100
AcDbPoint
 10
361.9224673766039
 20
208.0247696217243
 30
0.0
  0
ENDBLK
  5
1935
330
192A
100
AcDbEntity
  8
0
100
AcDbBlockEnd
  0
BLOCK
  5
1940
330
1936
100
AcDbEntity
  8
0
100
AcDbBlockBegin
  2
*D208
 70
     1
 10
0.0
 20
0.0
 30
0.0
  3
*D208
  1

  0
LINE
  5
1A2E
330
1936
100
AcDbEntity
  8
0
 62
   143
100
AcDbLine
 10
136.9180051397088
 20
199.9595450360161
 30
0.0
 11
158.250422250192
 21
199.9595450360161
 31
0.0
  0
LINE
  5
1A2F
330
1936
100
AcDbEntity
  8
0
 62
   143
100
AcDbLine
 10
129.9180051397088
 20
239.7595450360161
 30
0.0
 11
158.250422250192
 21
239.7595450360161
 31
0.0
  0
LINE
  5
1A30
330
1936
100
AcDbEntity
  8
0
 62
   143
100
AcDbLine
 10
157.250422250192
 20
201.4595450360161
 30
0.0
 11
157.250422250192
 21
238.2595450360161
 31
0.0
  0
INSERT
  5
1A31
330
1936
100
AcDbEntity
  8
0
 62
   143
100
AcDbBlockReference
  2
_DOT
 10
157.250422250192
 20
199.9595450360161
 30
0.0
 41
1.5
 42
1.5
 43
1.5
 50
270.0
  0
INSERT
  5
1A32
330
1936
100
AcDbEntity
  8
0
 62
   143
100
AcDbBlockReference
  2
_DOT
 10
157.250422250192
 20
239.7595450360161
 30
0.0
 41
1.5
 42
1.5
 43
1.5
 50
90.0
  0
MTEXT
  5
1A33
330
1936
100
AcDbEntity
  8
0
 62
     7
100
AcDbMText
 10
153.250422250192
 20
219.8595450360162
 30
0.0
 40
5.0
 41
0.0
 71
     5
 72
     1
  1
40
  7
ｺﾞｼｯｸ
 11
0.0000000000000001
 21
1.0
 31
0.0
 73
     1
 44
1.0
1001
ACAD
1000
MTEXTBEGIN
1070
    73
1070
     1
1070
    44
1040
1.0
1070
    74
1070
     0
1000
MTEXTEND
  0
POINT
  5
1A34
330
1936
100
AcDbEntity
  8
Defpoints
 62
     0
100
AcDbPoint
 10
133.9180051397088
 20
199.9595450360161
 30
0.0
  0
POINT
  5
1A35
330
1936
100
AcDbEntity
  8
Defpoints
 62
     0
100
AcDbPoint
 10
126.9180051397088
 20
239.7595450360161
 30
0.0
  0
POINT
  5
1A36
330
1936
100
AcDbEntity
  8
Defpoints
 62
     0
100
AcDbPoint
 10
157.250422250192
 20
239.7595450360161
 30
0.0
  0
ENDBLK
  5
1941
330
1936
100
AcDbEntity
  8
0
100
AcDbBlockEnd
  0
ENDSEC
  0
SECTION
  2
ENTITIES
  0
LWPOLYLINE
  5
1773
330
37
100
AcDbEntity
  8
位置合わせ
100
AcDbPolyline
 90
        4
 70
     1
 43
0.0
 10
13.79999824189144
 20
16.09999822153656
 10
13.7999982418919
 20
596.0999982215366
 10
413.7999982418909
 20
596.0999982215364
 10
413.7999982418909
 20
16.09999822153645
  0
LWPOLYLINE
  5
1774
330
37
100
AcDbEntity
  8
位置合わせ
100
AcDbPolyline
 90
        4
 70
     1
 43
0.0
 10
427.599998241892
 20
612.1999982215365
 10
427.599998241892
 20
-0.0000017784635702
 10
-0.000001758108283
 20
-0.0000017784634565
 10
-0.0000017581078282
 20
612.1999982215365
1001
GENIUS_GENREC_14
1002
{
1000
PYDIR
1011
-0.000001758108283
1021
612.1999982215365
1031
0.0
1002
}
1002
{
1000
PXDIR
1011
427.599998241892
1021
-0.0000017784635702
1031
0.0
1002
}
1002
{
1000
PORI
1011
427.599998241892
1021
612.1999982215365
1031
0.0
1002
}
1002
{
1000
PINS
1011
427.599998241892
1021
612.1999982215365
1031
0.0
1002
}
1002
{
1000
PINS2
1011
-0.000001758108283
1021
-0.0000017784634565
1031
0.0
1002
}
1002
{
1000
C
1070
     1
1002
}
1001
GENIUS_GENOBJ-N-REC_13
1002
{
1000
OWNER
1000
GEN
1002
}
1001
GENIUS_GENODEF_13
1002
{
1000
HIER
1070
     0
1002
}
1002
{
1000
MANEDIT
1070
     0
1002
}
1002
{
1000
NOSEL
1070
     0
1002
}
1002
{
1000
BEHIND
1070
     0
1002
}
1002
{
1000
OTHER
1070
     0
1002
}
1002
{
1000
REACTOR
1002
}
  0
HATCH
  5
1775
330
37
100
AcDbEntity
  8
0
100
AcDbHatch
 10
0.0
 20
0.0
 30
0.0
210
0.0
220
0.0
230
1.0
  2
SOLID
 70
     1
 71
     1
 91
        1
 92
        7
 72
     0
 73
     1
 93
        4
 10
44.99999824189217
 20
547.1999982215366
 10
44.99999824189217
 20
545.1999982215365
 10
382.5999982418921
 20
545.1999982215365
 10
382.5999982418921
 20
547.1999982215366
 97
        1
330
1776
 75
     0
 76
     1
 47
0.4534312372153125
 98
        1
 10
252.8621006047651
 20
546.7874292411706
1001
ACAD
1010
0.0
1020
0.0
1030
0.0
  0
LWPOLYLINE
  5
1776
102
{ACAD_REACTORS
330
1775
102
}
330
37
100
AcDbEntity
  8
0
100
AcDbPolyline
 90
        4
 70
     1
 43
0.0
 10
44.99999824189217
 20
547.1999982215366
 10
382.5999982418921
 20
547.1999982215366
 10
382.5999982418921
 20
545.1999982215365
 10
44.99999824189217
 20
545.1999982215365
1001
GENIUS_GENREC_14
1002
{
1000
PYDIR
1011
44.99999824189217
1021
545.1999982215365
1031
0.0
1002
}
1002
{
1000
PXDIR
1011
382.5999982418921
1021
547.1999982215366
1031
0.0
1002
}
1002
{
1000
PORI
1011
44.99999824189217
1021
547.1999982215366
1031
0.0
1002
}
1002
{
1000
PINS
1011
44.99999824189217
1021
547.1999982215366
1031
0.0
1002
}
1002
{
1000
PINS2
1011
382.5999982418921
1021
545.1999982215365
1031
0.0
1002
}
1002
{
1000
C
1070
     1
1002
}
1001
GENIUS_GENOBJ-N-REC_13
1002
{
1000
OWNER
1000
GEN
1002
}
1001
GENIUS_GENODEF_13
1002
{
1000
HIER
1070
     0
1002
}
1002
{
1000
MANEDIT
1070
     0
1002
}
1002
{
1000
NOSEL
1070
     0
1002
}
1002
{
1000
BEHIND
1070
     0
1002
}
1002
{
1000
OTHER
1070
     0
1002
}
1002
{
1000
REACTOR
1002
}
  0
HATCH
  5
1777
330
37
100
AcDbEntity
  8
0
100
AcDbHatch
 10
0.0
 20
0.0
 30
0.0
210
0.0
220
0.0
230
1.0
  2
SOLID
 70
     1
 71
     1
 91
        1
 92
        7
 72
     0
 73
     1
 93
        4
 10
54.99999824189217
 20
560.1999982215366
 10
44.99999824189217
 20
560.1999982215366
 10
44.99999824189217
 20
550.1999982215365
 10
54.99999824189217
 20
550.1999982215365
 97
        1
330
1778
 75
     0
 76
     1
 47
0.1413765431989858
 98
        1
 10
49.49506637447029
 20
555.6986748592885
1001
ACAD
1010
0.0
1020
0.0
1030
0.0
  0
LWPOLYLINE
  5
1778
102
{ACAD_REACTORS
330
1777
102
}
330
37
100
AcDbEntity
  8
0
100
AcDbPolyline
 90
        4
 70
     1
 43
0.0
 10
44.99999824189217
 20
550.1999982215365
 10
54.99999824189217
 20
550.1999982215365
 10
54.99999824189217
 20
560.1999982215366
 10
44.99999824189217
 20
560.1999982215366
1001
GENIUS_GENREC_14
1002
{
1000
PYDIR
1011
44.99999824189217
1021
560.1999982215366
1031
0.0
1002
}
1002
{
1000
PXDIR
1011
54.99999824189217
1021
550.1999982215365
1031
0.0
1002
}
1002
{
1000
PORI
1011
44.99999824189217
1021
550.1999982215365
1031
0.0
1002
}
1002
{
1000
PINS
1011
44.99999824189217
1021
550.1999982215365
1031
0.0
1002
}
1002
{
1000
PINS2
1011
54.99999824189217
1021
560.1999982215366
1031
0.0
1002
}
1002
{
1000
C
1070
     1
1002
}
1001
GENIUS_GENOBJ-N-REC_13
1002
{
1000
OWNER
1000
GEN
1002
}
1001
GENIUS_GENODEF_13
1002
{
1000
HIER
1070
     0
1002
}
1002
{
1000
MANEDIT
1070
     0
1002
}
1002
{
1000
NOSEL
1070
     0
1002
}
1002
{
1000
BEHIND
1070
     0
1002
}
1002
{
1000
OTHER
1070
     0
1002
}
1002
{
1000
REACTOR
1002
}
  0
TEXT
  5
1779
330
37
100
AcDbEntity
  8
5-文字
100
AcDbText
 10
61.81768396181087
 20
551.1696635908164
 30
0.0
 40
7.0
  1
TR-24G -Ⅰ
  7
ｺﾞｼｯｸ
100
AcDbText
  0
TEXT
  5
177A
330
37
100
AcDbEntity
  8
5-文字
100
AcDbText
 10
332.8169304760038
 20
551.1696635908164
 30
0.0
 40
6.0
  1
24mm見込み
  7
ｺﾞｼｯｸ
 72
     2
 11
380.5442032032765
 21
551.1696635908164
 31
0.0
100
AcDbText
  0
TEXT
  5
177B
330
37
100
AcDbEntity
  8
ページ
100
AcDbText
 10
203.6224204054154
 20
19.15896537569711
 30
0.0
 40
5.0
  1
P - 11
  7
ｺﾞｼｯｸ
 72
     1
 11
213.5371931326881
 21
19.15896537569711
 31
0.0
100
AcDbText
  0
TEXT
  5
177C
330
37
100
AcDbEntity
  8
5-文字
100
AcDbText
 10
157.0122872775641
 20
551.1696635908164
 30
0.0
 40
6.0
  1
アルミ框ドアー・サッシ用ガラリ
  7
ｺﾞｼｯｸ
100
AcDbText
  0
INSERT
  5
177D
330
37
100
AcDbEntity
  8
型材
100
AcDbBlockReference
  2
24G外枠
 10
121.9180051397088
 20
452.559545036016
 30
0.0
  0
INSERT
  5
177E
330
37
100
AcDbEntity
  8
型材
100
AcDbBlockReference
  2
24G羽根
 10
114.2680051397092
 20
405.759545036016
 30
0.0
 50
90.0
  0
DIMENSION
  5
177F
330
37
100
AcDbEntity
  8
0
100
AcDbDimension
  2
*D182
 10
117.9180051397088
 20
469.7727297240271
 30
0.0
 11
113.9180051397088
 21
473.7727297240271
 31
0.0
 70
    32
 71
     5
 42
8.0
  3
OSAMARI_標準
100
AcDbAlignedDimension
 13
109.9180051397088
 23
446.059545036016
 33
0.0
 14
117.9180051397088
 24
455.5595450360161
 34
0.0
100
AcDbRotatedDimension
  0
DIMENSION
  5
1780
330
37
100
AcDbEntity
  8
0
100
AcDbDimension
  2
*D183
 10
125.9180051397088
 20
469.7727297240271
 30
0.0
 11
121.9180051397088
 21
473.7727297240271
 31
0.0
 70
    32
 71
     5
 42
8.0
  3
OSAMARI_標準
100
AcDbAlignedDimension
 13
117.9180051397088
 23
455.5595450360161
 33
0.0
 14
125.9180051397088
 24
455.5595450360161
 34
0.0
100
AcDbRotatedDimension
  0
DIMENSION
  5
1781
330
37
100
AcDbEntity
  8
0
100
AcDbDimension
  2
*D184
 10
125.9180051397088
 20
469.7727297240271
 30
0.0
 11
129.9180051397088
 21
473.7727297240271
 31
0.0
 70
    32
 71
     5
 42
8.0
  3
OSAMARI_標準
100
AcDbAlignedDimension
 13
133.9180051397088
 23
446.059545036016
 33
0.0
 14
125.9180051397088
 24
455.5595450360161
 34
0.0
 50
180.0
100
AcDbRotatedDimension
  0
DIMENSION
  5
1782
330
37
100
AcDbEntity
  8
0
100
AcDbDimension
  2
*D185
 10
81.42856653681247
 20
446.5595450360161
 30
0.0
 11
77.4285665368124
 21
451.559545036016
 31
0.0
 70
    32
 71
     5
 42
10.0
  3
OSAMARI_標準
100
AcDbAlignedDimension
 13
118.9180051397088
 23
456.559545036016
 33
0.0
 14
110.4180051397088
 24
446.5595450360161
 34
0.0
 50
90.0
100
AcDbRotatedDimension
  0
DIMENSION
  5
1783
330
37
100
AcDbEntity
  8
0
100
AcDbDimension
  2
*D186
 10
97.22760110719271
 20
436.7595450360161
 30
0.0
 11
97.22760110719264
 21
441.6595450360161
 31
0.0
 70
   160
  1
10
 71
     5
 42
9.799999999999954
  3
OSAMARI_標準
100
AcDbAlignedDimension
 13
110.4180051397088
 23
446.5595450360161
 33
0.0
 14
111.218005139709
 24
436.7595450360161
 34
0.0
 50
90.0
100
AcDbRotatedDimension
  0
DIMENSION
  5
1784
330
37
100
AcDbEntity
  8
0
100
AcDbDimension
  2
*D187
 10
81.42856653681247
 20
430.759545036016
 30
0.0
 11
76.83197562772149
 21
438.659545036016
 31
0.0
 70
    32
  1
(  )
 71
     5
 42
15.79999999999995
  3
OSAMARI_標準
100
AcDbAlignedDimension
 13
110.4180051397088
 23
446.5595450360161
 33
0.0
 14
124.4180051397093
 24
430.759545036016
 34
0.0
 50
90.0
100
AcDbRotatedDimension
  0
DIMENSION
  5
1785
330
37
100
AcDbEntity
  8
0
100
AcDbDimension
  2
*D188
 10
81.42856653681247
 20
385.7595450360161
 30
0.0
 11
77.42856653681241
 21
408.2595450360161
 31
0.0
 70
    32
 71
     5
 42
45.0
  3
OSAMARI_標準
100
AcDbAlignedDimension
 13
124.4180051397093
 23
430.759545036016
 33
0.0
 14
111.7180051397095
 24
385.7595450360161
 34
0.0
 50
90.0
100
AcDbRotatedDimension
  0
DIMENSION
  5
1786
330
37
100
AcDbEntity
  8
0
100
AcDbDimension
  2
*D189
 10
133.9180051397084
 20
481.5691735268701
 30
0.0
 11
121.9180051397086
 21
485.5691735268701
 31
0.0
 70
    32
 71
     5
 42
23.99999999999955
  3
OSAMARI_標準
100
AcDbAlignedDimension
 13
109.9180051397088
 23
446.059545036016
 33
0.0
 14
133.9180051397084
 24
446.059545036016
 34
0.0
100
AcDbRotatedDimension
  0
INSERT
  5
1787
330
37
100
AcDbEntity
  8
型材
100
AcDbBlockReference
  2
24G羽根
 10
114.2680051397092
 20
365.7595450360161
 30
0.0
 50
90.0
  0
LINE
  5
1788
330
37
100
AcDbEntity
  8
型材
100
AcDbLine
 10
112.4180051397093
 20
306.7595450360161
 30
0.0
 11
111.9180051397093
 21
306.7595450360161
 31
0.0
  0
LINE
  5
1789
330
37
100
AcDbEntity
  8
型材
100
AcDbLine
 10
110.9180051397093
 20
306.2595450360161
 30
0.0
 11
110.9180051397093
 21
315.345331473643
 31
0.0
  0
LINE
  5
178A
330
37
100
AcDbEntity
  8
型材
100
AcDbLine
 10
111.9180051397093
 20
306.7595450360161
 30
0.0
 11
111.9180051397093
 21
315.345331473643
 31
0.0
  0
LINE
  5
178B
330
37
100
AcDbEntity
  8
型材
100
AcDbLine
 10
111.2180051397094
 20
318.2595450360161
 30
0.0
 11
113.4180051397093
 21
318.2595450360161
 31
0.0
  0
ARC
  5
178C
330
37
100
AcDbEntity
  8
型材
100
AcDbCircle
 10
111.2180051397094
 20
318.5595450360162
 30
0.0
 40
0.3
100
AcDbArc
 50
180.0
 51
270.0
1001
GENIUS_GENODEF_13
1002
{
1000
HIER
1070
     0
1002
}
1002
{
1000
MANEDIT
1070
     0
1002
}
1002
{
1000
NOSEL
1070
     0
1002
}
1002
{
1000
BEHIND
1070
     0
1002
}
1002
{
1000
OTHER
1070
     0
1002
}
1002
{
1000
REACTOR
1002
}
1001
GENIUS_GENOBJ-N-FIL_13
1002
{
1000
OWNER
1000
GEN
1002
}
  0
LINE
  5
178D
330
37
100
AcDbEntity
  8
型材
100
AcDbLine
 10
111.9180051397093
 20
319.2595450360161
 30
0.0
 11
115.1079546333703
 21
319.2595450360161
 31
0.0
  0
LINE
  5
178E
330
37
100
AcDbEntity
  8
型材
100
AcDbLine
 10
113.4180051397093
 20
318.2595450360161
 30
0.0
 11
111.2108983585226
 21
316.0524382548294
 31
0.0
  0
ARC
  5
178F
330
37
100
AcDbEntity
  8
型材
100
AcDbCircle
 10
111.9180051397093
 20
315.345331473643
 30
0.0
 40
1.0
100
AcDbArc
 50
135.0000000000092
 51
180.0
1001
GENIUS_GENODEF_13
1002
{
1000
HIER
1070
     0
1002
}
1002
{
1000
MANEDIT
1070
     0
1002
}
1002
{
1000
NOSEL
1070
     0
1002
}
1002
{
1000
BEHIND
1070
     0
1002
}
1002
{
1000
OTHER
1070
     0
1002
}
1002
{
1000
REACTOR
1002
}
1001
GENIUS_GENOBJ-N-FIL_13
1002
{
1000
OWNER
1000
GEN
1002
}
  0
LINE
  5
1790
330
37
100
AcDbEntity
  8
型材
100
AcDbLine
 10
115.3200866677261
 20
318.7474130016601
 30
0.0
 11
111.9180051397093
 21
315.345331473643
 31
0.0
  0
ARC
  5
1791
330
37
100
AcDbEntity
  8
型材
100
AcDbCircle
 10
115.1079546333703
 20
318.959545036016
 30
0.0
 40
0.3
100
AcDbArc
 50
315.0000000000092
 51
90.0
1001
GENIUS_GENODEF_13
1002
{
1000
HIER
1070
     0
1002
}
1002
{
1000
MANEDIT
1070
     0
1002
}
1002
{
1000
NOSEL
1070
     0
1002
}
1002
{
1000
BEHIND
1070
     0
1002
}
1002
{
1000
OTHER
1070
     0
1002
}
1002
{
1000
REACTOR
1002
}
1001
GENIUS_GENOBJ-N-FIL_13
1002
{
1000
OWNER
1000
GEN
1002
}
  0
LINE
  5
1792
330
37
100
AcDbEntity
  8
型材
100
AcDbLine
 10
110.9180051397093
 20
318.5595450360162
 30
0.0
 11
110.9180051397093
 21
329.2736184207788
 31
0.0
  0
LINE
  5
1793
330
37
100
AcDbEntity
  8
型材
100
AcDbLine
 10
125.6180051397091
 20
344.2736184207788
 30
0.0
 11
125.6180051397091
 21
350.2595450360161
 31
0.0
  0
LINE
  5
1794
330
37
100
AcDbEntity
  8
型材
100
AcDbLine
 10
124.6180051397091
 20
344.4595450360162
 30
0.0
 11
124.6180051397091
 21
349.7595450360161
 31
0.0
  0
LINE
  5
1795
330
37
100
AcDbEntity
  8
型材
100
AcDbLine
 10
111.9180051397093
 20
328.2045776206984
 30
0.0
 11
111.9180051397097
 21
329.2736184207789
 31
0.0
  0
ARC
  5
1796
330
37
100
AcDbEntity
  8
型材
100
AcDbCircle
 10
114.2680051397092
 20
325.7595450360161
 30
0.0
 40
1.55
100
AcDbArc
 50
139.7831953638603
 51
151.0614722598189
  0
ARC
  5
1797
330
37
100
AcDbEntity
  8
型材
100
AcDbCircle
 10
114.2680051397092
 20
325.7595450360161
 30
0.0
 40
1.55
100
AcDbArc
 50
208.9385277401811
 51
241.0614722598189
  0
ARC
  5
1798
330
37
100
AcDbEntity
  8
型材
100
AcDbCircle
 10
114.2680051397092
 20
325.7595450360161
 30
0.0
 40
1.55
100
AcDbArc
 50
298.9385277401811
 51
331.0614722598189
  0
ARC
  5
1799
330
37
100
AcDbEntity
  8
型材
100
AcDbCircle
 10
114.2680051397092
 20
325.7595450360161
 30
0.0
 40
1.55
100
AcDbArc
 50
28.93852774018109
 51
40.21680463613968
  0
ARC
  5
179A
330
37
100
AcDbEntity
  8
型材
100
AcDbCircle
 10
114.2680051397092
 20
325.7595450360161
 30
0.0
 40
3.0
100
AcDbArc
 50
231.5952958853093
 51
29.25171569827505
  0
ARC
  5
179B
330
37
100
AcDbEntity
  8
型材
100
AcDbCircle
 10
112.2180051397094
 20
323.173524927819
 30
0.0
 40
0.3
100
AcDbArc
 50
51.59529588530926
 51
180.0
1001
GENIUS_GENODEF_13
1002
{
1000
HIER
1070
     0
1002
}
1002
{
1000
MANEDIT
1070
     0
1002
}
1002
{
1000
NOSEL
1070
     0
1002
}
1002
{
1000
BEHIND
1070
     0
1002
}
1002
{
1000
OTHER
1070
     0
1002
}
1002
{
1000
REACTOR
1002
}
1001
GENIUS_GENOBJ-N-FIL_13
1002
{
1000
OWNER
1000
GEN
1002
}
  0
ARC
  5
179C
330
37
100
AcDbEntity
  8
型材
100
AcDbCircle
 10
117.1471936776115
 20
327.3720813497814
 30
0.0
 40
0.3
100
AcDbArc
 50
135.0000000000092
 51
209.2517156982751
1001
GENIUS_GENOBJ-N-FIL_13
1002
{
1000
OWNER
1000
GEN
1002
}
1001
GENIUS_GENODEF_13
1002
{
1000
HIER
1070
     0
1002
}
1002
{
1000
MANEDIT
1070
     0
1002
}
1002
{
1000
NOSEL
1070
     0
1002
}
1002
{
1000
BEHIND
1070
     0
1002
}
1002
{
1000
OTHER
1070
     0
1002
}
1002
{
1000
REACTOR
1002
}
  0
ARC
  5
179D
330
37
100
AcDbEntity
  8
型材
100
AcDbCircle
 10
112.5307999302449
 20
327.2284708545005
 30
0.0
 40
0.725
100
AcDbArc
 50
319.7831953638603
 51
107.7681300397015
  0
ARC
  5
179E
330
37
100
AcDbEntity
  8
型材
100
AcDbCircle
 10
112.2180051397094
 20
328.2045776206983
 30
0.0
 40
0.3
100
AcDbArc
 50
179.9999999999935
 51
287.7681300397016
1001
GENIUS_GENODEF_13
1002
{
1000
HIER
1070
     0
1002
}
1002
{
1000
MANEDIT
1070
     0
1002
}
1002
{
1000
NOSEL
1070
     0
1002
}
1002
{
1000
BEHIND
1070
     0
1002
}
1002
{
1000
OTHER
1070
     0
1002
}
1002
{
1000
REACTOR
1002
}
1001
GENIUS_GENOBJ-N-FIL_13
1002
{
1000
OWNER
1000
GEN
1002
}
  0
ARC
  5
179F
330
37
100
AcDbEntity
  8
型材
100
AcDbCircle
 10
116.0052103491734
 20
327.2284708545005
 30
0.0
 40
0.725
100
AcDbArc
 50
169.978146269832
 51
220.2168046361397
  0
LINE
  5
17A0
330
37
100
AcDbEntity
  8
型材
100
AcDbLine
 10
112.2680051397092
 20
325.0095450360161
 30
0.0
 11
112.9115391430841
 21
325.0095450360161
 31
0.0
  0
LINE
  5
17A1
330
37
100
AcDbEntity
  8
型材
100
AcDbLine
 10
112.2680051397092
 20
326.5095450360161
 30
0.0
 11
112.9115391430841
 21
326.5095450360161
 31
0.0
  0
LINE
  5
17A2
330
37
100
AcDbEntity
  8
型材
100
AcDbLine
 10
112.2680051397092
 20
325.0095450360161
 30
0.0
 11
112.2680051397092
 21
326.5095450360161
 31
0.0
  0
LINE
  5
17A3
330
37
100
AcDbEntity
  8
型材
100
AcDbLine
 10
116.2680051397092
 20
325.0095450360161
 30
0.0
 11
115.6244711363342
 21
325.0095450360161
 31
0.0
  0
LINE
  5
17A4
330
37
100
AcDbEntity
  8
型材
100
AcDbLine
 10
116.2680051397092
 20
326.5095450360161
 30
0.0
 11
115.6244711363342
 21
326.5095450360161
 31
0.0
  0
LINE
  5
17A5
330
37
100
AcDbEntity
  8
型材
100
AcDbLine
 10
116.2680051397092
 20
325.0095450360161
 30
0.0
 11
116.2680051397092
 21
326.5095450360161
 31
0.0
  0
LINE
  5
17A6
330
37
100
AcDbEntity
  8
型材
100
AcDbLine
 10
115.0180051397092
 20
323.7595450360161
 30
0.0
 11
115.0180051397092
 21
324.4030790393911
 31
0.0
  0
LINE
  5
17A7
330
37
100
AcDbEntity
  8
型材
100
AcDbLine
 10
113.5180051397092
 20
323.7595450360161
 30
0.0
 11
113.5180051397092
 21
324.4030790393911
 31
0.0
  0
LINE
  5
17A8
330
37
100
AcDbEntity
  8
型材
100
AcDbLine
 10
115.0180051397092
 20
323.7595450360161
 30
0.0
 11
113.5180051397092
 21
323.7595450360161
 31
0.0
  0
ARC
  5
17A9
330
37
100
AcDbEntity
  8
型材
100
AcDbCircle
 10
111.4180051397093
 20
306.2595450360161
 30
0.0
 40
0.5
100
AcDbArc
 50
180.0
 51
270.0
1001
GENIUS_GENODEF_13
1002
{
1000
HIER
1070
     0
1002
}
1002
{
1000
MANEDIT
1070
     0
1002
}
1002
{
1000
NOSEL
1070
     0
1002
}
1002
{
1000
BEHIND
1070
     0
1002
}
1002
{
1000
OTHER
1070
     0
1002
}
1002
{
1000
REACTOR
1002
}
1001
GENIUS_GENOBJ-N-FIL_13
1002
{
1000
OWNER
1000
GEN
1002
}
  0
LINE
  5
17AA
330
37
100
AcDbEntity
  8
型材
100
AcDbLine
 10
125.1180051397091
 20
350.7595450360161
 30
0.0
 11
124.1180051397091
 21
350.7595450360161
 31
0.0
  0
ARC
  5
17AB
330
37
100
AcDbEntity
  8
型材
100
AcDbCircle
 10
125.1180051397091
 20
350.2595450360161
 30
0.0
 40
0.5
100
AcDbArc
 50
0.0
 51
90.0
1001
GENIUS_GENODEF_13
1002
{
1000
HIER
1070
     0
1002
}
1002
{
1000
MANEDIT
1070
     0
1002
}
1002
{
1000
NOSEL
1070
     0
1002
}
1002
{
1000
BEHIND
1070
     0
1002
}
1002
{
1000
OTHER
1070
     0
1002
}
1002
{
1000
REACTOR
1002
}
1001
GENIUS_GENOBJ-N-FIL_13
1002
{
1000
OWNER
1000
GEN
1002
}
  0
LINE
  5
17AC
330
37
100
AcDbEntity
  8
型材
100
AcDbLine
 10
124.6180051397091
 20
349.7595450360161
 30
0.0
 11
124.1180051397091
 21
349.7595450360161
 31
0.0
  0
LINE
  5
17AD
330
37
100
AcDbEntity
  8
型材
100
AcDbLine
 10
124.6180051397091
 20
344.4595450360162
 30
0.0
 11
124.4320785244717
 21
344.2736184207788
 31
0.0
  0
LINE
  5
17AE
330
37
100
AcDbEntity
  8
型材
100
AcDbLine
 10
118.6244666798975
 20
329.2736184207788
 30
0.0
 11
116.9350616432557
 21
327.5842133841373
 31
0.0
  0
LINE
  5
17AF
330
37
100
AcDbEntity
  8
型材
100
AcDbLine
 10
117.2102531175237
 20
329.2736184207788
 30
0.0
 11
115.2912727989605
 21
327.3546381022155
 31
0.0
  0
LINE
  5
17B0
330
37
100
AcDbEntity
  8
型材
100
AcDbLine
 10
111.9180051397093
 20
319.2595450360161
 30
0.0
 11
111.9180051397093
 21
323.173524927819
 31
0.0
  0
LINE
  5
17B1
330
37
100
AcDbEntity
  8
型材
100
AcDbLine
 10
112.4180051397093
 20
305.7595450360161
 30
0.0
 11
111.4180051397093
 21
305.7595450360161
 31
0.0
  0
ARC
  5
17B2
330
37
100
AcDbEntity
  8
型材
100
AcDbCircle
 10
112.4180051397093
 20
306.2595450360161
 30
0.0
 40
0.5
100
AcDbArc
 50
270.0
 51
90.0
  0
ARC
  5
17B3
330
37
100
AcDbEntity
  8
型材
100
AcDbCircle
 10
124.1180051397091
 20
350.2595450360161
 30
0.0
 40
0.4999999999999716
100
AcDbArc
 50
90.0
 51
270.0
  0
INSERT
  5
17B4
330
37
100
AcDbEntity
  8
型材
100
AcDbBlockReference
  2
24G羽根
 10
114.2680051397092
 20
285.7595450360161
 30
0.0
 50
90.0
  0
INSERT
  5
17B5
330
37
100
AcDbEntity
  8
型材
100
AcDbBlockReference
  2
24G羽根
 10
114.2680051397092
 20
245.7595450360161
 30
0.0
 50
90.0
  0
DIMENSION
  5
17B6
330
37
100
AcDbEntity
  8
0
100
AcDbDimension
  2
*D190
 10
81.42856653681201
 20
225.7595450360161
 30
0.0
 11
77.42856653681197
 21
305.7595450360161
 31
0.0
 70
    32
  1
40P×N
 71
     5
 42
159.9999999999999
  3
OSAMARI_標準
100
AcDbAlignedDimension
 13
111.7180051397095
 23
385.7595450360161
 33
0.0
 14
111.7180051397095
 24
225.7595450360161
 34
0.0
 50
90.0
100
AcDbRotatedDimension
  0
INSERT
  5
17B7
330
37
100
AcDbEntity
  8
型材
100
AcDbBlockReference
  2
24G外枠
 10
121.9180051397088
 20
203.9595450360161
 30
0.0
 41
-1.0
 50
180.0
  0
DIMENSION
  5
17B8
330
37
100
AcDbEntity
  8
0
100
AcDbDimension
  2
*D191
 10
81.42856653681247
 20
209.9595450360161
 30
0.0
 11
77.42856653681243
 21
204.9595450360162
 31
0.0
 70
    32
 71
     5
 42
10.0
  3
OSAMARI_標準
100
AcDbAlignedDimension
 13
118.9180051397088
 23
199.9595450360161
 33
0.0
 14
110.4180051397088
 24
209.9595450360161
 34
0.0
 50
270.0
100
AcDbRotatedDimension
  0
DIMENSION
  5
17B9
330
37
100
AcDbEntity
  8
0
100
AcDbDimension
  2
*D192
 10
97.22760110719267
 20
219.7595450360161
 30
0.0
 11
97.22760110719264
 21
214.8595450360166
 31
0.0
 70
   160
 71
     5
 42
9.799999999999954
  3
OSAMARI_標準
100
AcDbAlignedDimension
 13
110.4180051397088
 23
209.9595450360161
 33
0.0
 14
111.218005139709
 24
219.7595450360161
 34
0.0
 50
270.0
100
AcDbRotatedDimension
1001
ACAD
1000
DSTYLE
1002
{
1070
   271
1070
     0
1002
}
  0
DIMENSION
  5
17BA
330
37
100
AcDbEntity
  8
0
100
AcDbDimension
  2
*D193
 10
81.42856653681247
 20
225.7595450360161
 30
0.0
 11
76.83197562772152
 21
217.8595450360162
 31
0.0
 70
    32
  1
(  )
 71
     5
 42
15.79999999999995
  3
OSAMARI_標準
100
AcDbAlignedDimension
 13
110.4180051397088
 23
209.9595450360161
 33
0.0
 14
111.7180051397095
 24
225.7595450360161
 34
0.0
 50
270.0
100
AcDbRotatedDimension
  0
LINE
  5
17BB
330
37
100
AcDbEntity
  8
0
100
AcDbLine
 10
109.9180051397088
 20
435.2595450360161
 30
0.0
 11
109.9180051397093
 21
344.2736184207788
 31
0.0
  0
LINE
  5
17BC
330
37
100
AcDbEntity
  8
0
100
AcDbLine
 10
109.9180051397093
 20
329.2736184207788
 30
0.0
 11
109.9180051397088
 21
221.2595450360161
 31
0.0
  0
LINE
  5
17BD
330
37
100
AcDbEntity
  8
0
100
AcDbLine
 10
133.9180051397088
 20
436.7595450360161
 30
0.0
 11
133.9180051397084
 21
344.2736184207788
 31
0.0
  0
LINE
  5
17BE
330
37
100
AcDbEntity
  8
0
100
AcDbLine
 10
133.9180051397084
 20
329.2736184207788
 30
0.0
 11
133.9180051397088
 21
219.7595450360161
 31
0.0
  0
LINE
  5
17BF
330
37
100
AcDbEntity
  8
0
100
AcDbLine
 10
127.9180051397088
 20
417.259545036016
 30
0.0
 11
127.9180051397088
 21
344.2736184207788
 31
0.0
  0
LINE
  5
17C0
330
37
100
AcDbEntity
  8
0
100
AcDbLine
 10
127.9180051397088
 20
329.2736184207787
 30
0.0
 11
127.9180051397088
 21
239.2595450360161
 31
0.0
  0
DIMENSION
  5
17C1
330
37
100
AcDbEntity
  8
0
100
AcDbDimension
  2
*D194
 10
157.250422250192
 20
416.759545036016
 30
0.0
 11
153.250422250192
 21
436.659545036016
 31
0.0
 70
    32
 71
     5
 42
39.80000000000001
  3
OSAMARI_標準
100
AcDbAlignedDimension
 13
133.9180051397088
 23
456.559545036016
 33
0.0
 14
126.9180051397088
 24
416.7595450360161
 34
0.0
 50
90.0
100
AcDbRotatedDimension
1001
ACAD
1000
DSTYLE
1002
{
1070
   271
1070
     0
1002
}
  0
DIMENSION
  5
17C2
330
37
100
AcDbEntity
  8
0
100
AcDbDimension
  2
*D195
 10
61.06410453765784
 20
199.9595450360162
 30
0.0
 11
57.06410453765782
 21
328.2595450360161
 31
0.0
 70
    32
  1
MH
 71
     5
 42
256.5999999999999
  3
OSAMARI_標準
100
AcDbAlignedDimension
 13
118.9180051397088
 23
456.559545036016
 33
0.0
 14
118.9180051397088
 24
199.9595450360161
 34
0.0
 50
90.0
100
AcDbRotatedDimension
  0
DIMENSION
  5
17C3
330
37
100
AcDbEntity
  8
0
100
AcDbDimension
  2
*D196
 10
109.9180051397088
 20
333.8320040471699
 30
0.0
 11
104.6651642306179
 21
337.8320040471699
 31
0.0
 70
    32
 71
     5
 42
1.000000000000454
  3
OSAMARI_標準
100
AcDbAlignedDimension
 13
110.9180051397093
 23
346.2595450360161
 33
0.0
 14
109.9180051397088
 24
346.2595450360161
 34
0.0
100
AcDbRotatedDimension
  0
DIMENSION
  5
17C4
330
37
100
AcDbEntity
  8
0
100
AcDbDimension
  2
*D197
 10
125.9180051397093
 20
333.8320040471699
 30
0.0
 11
118.4180051397093
 21
337.8320040471699
 31
0.0
 70
    32
 71
     5
 42
15.0
  3
OSAMARI_標準
100
AcDbAlignedDimension
 13
110.9180051397093
 23
346.2595450360161
 33
0.0
 14
125.9180051397093
 24
346.2595450360161
 34
0.0
100
AcDbRotatedDimension
  0
DIMENSION
  5
17C5
330
37
100
AcDbEntity
  8
0
100
AcDbDimension
  2
*D198
 10
133.9180051397088
 20
333.8320040471699
 30
0.0
 11
129.918005139709
 21
337.8320040471699
 31
0.0
 70
    32
 71
     5
 42
7.999999999999545
  3
OSAMARI_標準
100
AcDbAlignedDimension
 13
125.9180051397093
 23
346.2595450360161
 33
0.0
 14
133.9180051397088
 24
346.2595450360161
 34
0.0
100
AcDbRotatedDimension
  0
LINE
  5
17C6
330
37
100
AcDbEntity
  8
細線
100
AcDbLine
 10
104.9180051397088
 20
344.2736184207788
 30
0.0
 11
138.9180051397088
 21
344.2736184207788
 31
0.0
  0
LINE
  5
17C7
330
37
100
AcDbEntity
  8
細線
100
AcDbLine
 10
104.9180051397088
 20
329.2736184207788
 30
0.0
 11
138.9180051397088
 21
329.2736184207788
 31
0.0
  0
LINE
  5
17C8
330
37
100
AcDbEntity
  8
0
100
AcDbLine
 10
321.7415121949762
 20
387.7399804780541
 30
0.0
 11
239.4454288801248
 21
387.7399804780546
 31
0.0
  0
LINE
  5
17C9
330
37
100
AcDbEntity
  8
0
100
AcDbLine
 10
336.7415121949766
 20
402.7399804780541
 30
0.0
 11
239.4454288801248
 21
402.7399804780546
 31
0.0
  0
LINE
  5
17CA
330
37
100
AcDbEntity
  8
0
100
AcDbLine
 10
332.9915121949766
 20
398.9899804780543
 30
0.0
 11
239.4454288801248
 21
398.9899804780546
 31
0.0
  0
LINE
  5
17CB
330
37
100
AcDbEntity
  8
0
100
AcDbLine
 10
329.2415121949766
 20
395.2399804780544
 30
0.0
 11
239.4454288801248
 21
395.2399804780546
 31
0.0
  0
LINE
  5
17CC
330
37
100
AcDbEntity
  8
0
100
AcDbLine
 10
325.4915121949766
 20
391.4899804780544
 30
0.0
 11
239.4454288801248
 21
391.4899804780546
 31
0.0
  0
LINE
  5
17CD
330
37
100
AcDbEntity
  8
0
100
AcDbLine
 10
340.4915121949762
 20
406.4899804780543
 30
0.0
 11
239.4454288801248
 21
406.4899804780545
 31
0.0
  0
LINE
  5
17CE
330
37
100
AcDbEntity
  8
0
100
AcDbLine
 10
344.2415121949771
 20
410.2399804780543
 30
0.0
 11
239.4454288801248
 21
410.2399804780545
 31
0.0
  0
LINE
  5
17CF
330
37
100
AcDbEntity
  8
0
100
AcDbLine
 10
345.2465121949772
 20
413.9899804780543
 30
0.0
 11
239.4454288801248
 21
413.9899804780545
 31
0.0
  0
LINE
  5
17D0
330
37
100
AcDbEntity
  8
0
100
AcDbLine
 10
345.2465121949772
 20
417.7399804780543
 30
0.0
 11
239.4454288801248
 21
417.7399804780545
 31
0.0
  0
LINE
  5
17D1
330
37
100
AcDbEntity
  8
0
100
AcDbLine
 10
345.2465121949772
 20
421.4899804780543
 30
0.0
 11
239.4454288801248
 21
421.4899804780546
 31
0.0
  0
LINE
  5
17D2
330
37
100
AcDbEntity
  8
0
100
AcDbLine
 10
345.2465121949772
 20
425.2399804780543
 30
0.0
 11
239.4454288801248
 21
425.2399804780545
 31
0.0
  0
LINE
  5
17D3
330
37
100
AcDbEntity
  8
0
100
AcDbLine
 10
345.2465121949772
 20
428.9899804780543
 30
0.0
 11
239.4454288801248
 21
428.9899804780545
 31
0.0
  0
LINE
  5
17D4
330
37
100
AcDbEntity
  8
0
100
AcDbLine
 10
345.2465121949772
 20
432.7399804780543
 30
0.0
 11
239.4454288801248
 21
432.7399804780545
 31
0.0
  0
LINE
  5
17D5
330
37
100
AcDbEntity
  8
0
100
AcDbLine
 10
236.2504288801247
 20
439.8649804780543
 30
0.0
 11
239.4454288801244
 21
436.6699804780546
 31
0.0
  0
LINE
  5
17D6
330
37
100
AcDbEntity
  8
0
100
AcDbLine
 10
236.2504288801247
 20
380.6149804780543
 30
0.0
 11
239.4454288801244
 21
383.8099804780543
 31
0.0
  0
LINE
  5
17D7
330
37
100
AcDbEntity
  8
0
100
AcDbLine
 10
348.4415121949764
 20
439.8649804780543
 30
0.0
 11
345.2465121949763
 21
436.6699804780544
 31
0.0
  0
LINE
  5
17D8
330
37
100
AcDbEntity
  8
0
100
AcDbLine
 10
348.4415121949774
 20
380.6149804780543
 30
0.0
 11
345.2465121949772
 21
383.8099804780545
 31
0.0
  0
DIMENSION
  5
17D9
330
37
100
AcDbEntity
  8
0
100
AcDbDimension
  2
*D199
 10
348.4415121949764
 20
463.0990493094195
 30
0.0
 11
292.3459705375506
 21
467.0990493094195
 31
0.0
 70
    32
  1
MW
 71
     5
 42
112.1910833148517
  3
OSAMARI_標準
100
AcDbAlignedDimension
 13
236.2504288801247
 23
439.8649804780543
 33
0.0
 14
348.4415121949764
 24
439.8649804780543
 34
0.0
100
AcDbRotatedDimension
  0
DIMENSION
  5
17DA
330
37
100
AcDbEntity
  8
0
100
AcDbDimension
  2
*D200
 10
207.8611817089059
 20
380.6149804780543
 30
0.0
 11
203.8611817089058
 21
410.2399804780544
 31
0.0
 70
    32
  1
MH
 71
     5
 42
59.25
  3
OSAMARI_標準
100
AcDbAlignedDimension
 13
236.2504288801247
 23
439.8649804780543
 33
0.0
 14
236.2504288801247
 24
380.6149804780543
 34
0.0
 50
90.0
100
AcDbRotatedDimension
  0
TEXT
  5
17DB
330
37
100
AcDbEntity
  8
5-文字
100
AcDbText
 10
258.5405069908693
 20
366.3249375117389
 30
0.0
 40
4.999999997999999
  1
裏面SUS防虫ネット
  7
ｺﾞｼｯｸ
100
AcDbText
  0
LINE
  5
17DC
330
37
100
AcDbEntity
  8
0
100
AcDbLine
 10
258.8646543687828
 20
364.278730718127
 30
0.0
 11
322.0437413662621
 21
364.278730718127
 31
0.0
  0
LINE
  5
17DD
330
37
100
AcDbEntity
  8
0
100
AcDbLine
 10
333.8895605262333
 20
388.0413808989469
 30
0.0
 11
322.0437413662621
 21
364.278730718127
 31
0.0
  0
TEXT
  5
17DE
330
37
100
AcDbEntity
  8
5-文字
100
AcDbText
 10
229.0334340376098
 20
505.2596777888474
 30
0.0
 40
6.0
  1
P=40   平均開口率 = 25%%%
  7
ｺﾞｼｯｸ
100
AcDbText
  0
TEXT
  5
17DF
330
37
100
AcDbEntity
  8
5-文字
100
AcDbText
 10
276.8740223433733
 20
357.2896720238873
 30
0.0
 40
4.999999997999999
  1
（オプション）
  7
ｺﾞｼｯｸ
100
AcDbText
  0
LINE
  5
17E0
330
37
100
AcDbEntity
  8
0
100
AcDbLine
 10
345.2465121949772
 20
411.2449804780549
 30
0.0
 11
317.8115121949768
 21
383.8099804780545
 31
0.0
  0
INSERT
  5
17E1
330
37
100
AcDbEntity
  8
型材
100
AcDbBlockReference
  2
24G外枠
 10
221.9755956751064
 20
220.0247696217239
 30
0.0
 41
-1.0
 50
90.0
  0
DIMENSION
  5
17E2
330
37
100
AcDbEntity
  8
0
100
AcDbDimension
  2
*D201
 10
204.7624109870954
 20
224.0247696217239
 30
0.0
 11
200.7624109870953
 21
228.0247696217239
 31
0.0
 70
    32
 71
     5
 42
8.0
  3
OSAMARI_標準
100
AcDbAlignedDimension
 13
228.4755956751064
 23
232.0247696217239
 33
0.0
 14
218.9755956751064
 24
224.0247696217239
 34
0.0
 50
270.0
100
AcDbRotatedDimension
  0
DIMENSION
  5
17E3
330
37
100
AcDbEntity
  8
0
100
AcDbDimension
  2
*D202
 10
204.7624109870954
 20
216.0247696217238
 30
0.0
 11
200.7624109870953
 21
220.0247696217239
 31
0.0
 70
    32
 71
     5
 42
8.0
  3
OSAMARI_標準
100
AcDbAlignedDimension
 13
218.9755956751064
 23
224.0247696217239
 33
0.0
 14
218.9755956751064
 24
216.0247696217238
 34
0.0
 50
270.0
100
AcDbRotatedDimension
  0
DIMENSION
  5
17E4
330
37
100
AcDbEntity
  8
0
100
AcDbDimension
  2
*D203
 10
204.7624109870954
 20
216.0247696217238
 30
0.0
 11
200.7624109870953
 21
212.0247696217239
 31
0.0
 70
    32
 71
     5
 42
8.0
  3
OSAMARI_標準
100
AcDbAlignedDimension
 13
228.4755956751064
 23
208.0247696217238
 33
0.0
 14
218.9755956751064
 24
216.0247696217238
 34
0.0
 50
90.0
100
AcDbRotatedDimension
  0
DIMENSION
  5
17E5
330
37
100
AcDbEntity
  8
0
100
AcDbDimension
  2
*D204
 10
227.9755956751064
 20
247.2993387844545
 30
0.0
 11
222.9755956751064
 21
251.2993387844545
 31
0.0
 70
    32
 71
     5
 42
10.0
  3
OSAMARI_標準
100
AcDbAlignedDimension
 13
217.9755956751064
 23
223.0247696217239
 33
0.0
 14
227.9755956751064
 24
231.5247696217239
 34
0.0
 50
180.0
100
AcDbRotatedDimension
  0
DIMENSION
  5
17E6
330
37
100
AcDbEntity
  8
0
100
AcDbDimension
  2
*D205
 10
237.7755956751066
 20
247.2993387844545
 30
0.0
 11
232.8755956751065
 21
247.2993387844545
 31
0.0
 70
   160
  1
<>
 71
     5
 42
9.800000000000181
  3
OSAMARI_標準
100
AcDbAlignedDimension
 13
227.9755956751064
 23
231.5247696217239
 33
0.0
 14
237.7755956751066
 24
230.7247696217238
 34
0.0
 50
180.0
100
AcDbRotatedDimension
1001
ACAD
1000
DSTYLE
1002
{
1070
   271
1070
     0
1002
}
  0
LINE
  5
17E7
330
37
100
AcDbEntity
  8
0
100
AcDbLine
 10
347.2896690598691
 20
232.0247696217234
 30
0.0
 11
239.2755956751062
 21
232.0247696217239
 31
0.0
  0
LINE
  5
17E8
330
37
100
AcDbEntity
  8
0
100
AcDbLine
 10
347.2896690598691
 20
208.0247696217243
 30
0.0
 11
237.7755956751061
 21
208.0247696217238
 31
0.0
  0
LINE
  5
17E9
330
37
100
AcDbEntity
  8
0
100
AcDbLine
 10
347.2896690598691
 20
214.0247696217238
 30
0.0
 11
257.2755956751062
 21
214.0247696217238
 31
0.0
  0
LINE
  5
17EA
330
37
100
AcDbEntity
  8
0
 62
   143
100
AcDbLine
 10
217.9755956751064
 20
226.0247696217239
 30
0.0
 11
217.9755956751064
 21
273.8088140188411
 31
0.0
  0
LINE
  5
17EB
330
37
100
AcDbEntity
  8
0
 62
   143
100
AcDbLine
 10
361.9224673766039
 20
272.8088140188411
 30
0.0
 11
219.2755956751066
 21
272.8088140188411
 31
0.0
  0
INSERT
  5
17EC
330
37
100
AcDbEntity
  8
0
 62
   143
100
AcDbBlockReference
  2
_DOT
 10
217.9755956751064
 20
272.8088140188411
 30
0.0
 41
1.300000000000181
 42
1.299999999999954
 43
1.3
 50
180.0
  0
MTEXT
  5
17ED
330
37
100
AcDbEntity
  8
0
 62
     7
100
AcDbMText
 10
292.613701932758
 20
276.8088140188411
 30
0.0
 40
5.0
 41
0.0
 71
     5
 72
     1
  1
MW
  7
ｺﾞｼｯｸ
 73
     1
 44
1.0
1001
ACAD
1000
MTEXTBEGIN
1070
    73
1070
     1
1070
    44
1040
1.0
1070
    74
1070
     0
1000
MTEXTEND
  0
DIMENSION
  5
17EE
330
37
100
AcDbEntity
  8
0
100
AcDbDimension
  2
*D206
 10
257.7755956751062
 20
189.7749985679666
 30
0.0
 11
237.8755956751063
 21
193.7749985679666
 31
0.0
 70
    32
 71
     5
 42
39.79999999999973
  3
OSAMARI_標準
100
AcDbAlignedDimension
 13
217.9755956751064
 23
208.8455516489157
 33
0.0
 14
257.7755956751062
 24
215.0247696217239
 34
0.0
 50
180.0
100
AcDbRotatedDimension
1001
ACAD
1000
DSTYLE
1002
{
1070
   271
1070
     0
1002
}
  0
LWPOLYLINE
  5
17EF
330
37
100
AcDbEntity
  8
0
100
AcDbPolyline
 90
        4
 70
     1
 43
0.0
 10
236.2504288801247
 20
439.8649804780543
 10
348.4415121949774
 20
439.8649804780543
 10
348.4415121949774
 20
380.6149804780543
 10
236.2504288801247
 20
380.6149804780543
1001
GENIUS_GENREC_14
1002
{
1000
PYDIR
1011
236.2504288801247
1021
380.6149804780543
1031
0.0
1002
}
1002
{
1000
PXDIR
1011
348.4415121949774
1021
439.8649804780543
1031
0.0
1002
}
1002
{
1000
PORI
1011
236.2504288801247
1021
439.8649804780543
1031
0.0
1002
}
1002
{
1000
PINS
1011
236.2504288801247
1021
439.8649804780543
1031
0.0
1002
}
1002
{
1000
PINS2
1011
348.4415121949774
1021
380.6149804780543
1031
0.0
1002
}
1002
{
1000
C
1070
     1
1002
}
1001
GENIUS_GENOBJ-N-REC_13
1002
{
1000
OWNER
1000
GEN
1002
}
1001
GENIUS_GENODEF_13
1002
{
1000
HIER
1070
     0
1002
}
1002
{
1000
MANEDIT
1070
     0
1002
}
1002
{
1000
NOSEL
1070
     0
1002
}
1002
{
1000
BEHIND
1070
     0
1002
}
1002
{
1000
OTHER
1070
     0
1002
}
1002
{
1000
REACTOR
1002
}
  0
LWPOLYLINE
  5
17F0
330
37
100
AcDbEntity
  8
0
100
AcDbPolyline
 90
        4
 70
     1
 43
0.0
 10
237.7504288801247
 20
438.3649804780543
 10
346.9415121949773
 20
438.3649804780543
 10
346.9415121949773
 20
382.1149804780544
 10
237.7504288801247
 20
382.1149804780544
1001
GENIUS_GENREC_14
1002
{
1000
PYDIR
1011
236.2504288801247
1021
380.6149804780543
1031
0.0
1002
}
1002
{
1000
PXDIR
1011
348.4415121949774
1021
439.8649804780543
1031
0.0
1002
}
1002
{
1000
PORI
1011
236.2504288801247
1021
439.8649804780543
1031
0.0
1002
}
1002
{
1000
PINS
1011
236.2504288801247
1021
439.8649804780543
1031
0.0
1002
}
1002
{
1000
PINS2
1011
348.4415121949774
1021
380.6149804780543
1031
0.0
1002
}
1002
{
1000
C
1070
     1
1002
}
1001
GENIUS_GENOBJ-N-REC_13
1002
{
1000
OWNER
1000
GEN
1002
}
1001
GENIUS_GENODEF_13
1002
{
1000
HIER
1070
     0
1002
}
1002
{
1000
MANEDIT
1070
     0
1002
}
1002
{
1000
NOSEL
1070
     0
1002
}
1002
{
1000
BEHIND
1070
     0
1002
}
1002
{
1000
OTHER
1070
     0
1002
}
1002
{
1000
REACTOR
1002
}
  0
LWPOLYLINE
  5
17F1
330
37
100
AcDbEntity
  8
0
100
AcDbPolyline
 90
        4
 70
     1
 43
0.0
 10
239.4454288801248
 20
436.6699804780544
 10
345.2465121949772
 20
436.6699804780544
 10
345.2465121949772
 20
383.8099804780543
 10
239.4454288801248
 20
383.8099804780543
1001
GENIUS_GENREC_14
1002
{
1000
PYDIR
1011
236.2504288801247
1021
380.6149804780543
1031
0.0
1002
}
1002
{
1000
PXDIR
1011
348.4415121949774
1021
439.8649804780543
1031
0.0
1002
}
1002
{
1000
PORI
1011
236.2504288801247
1021
439.8649804780543
1031
0.0
1002
}
1002
{
1000
PINS
1011
236.2504288801247
1021
439.8649804780543
1031
0.0
1002
}
1002
{
1000
PINS2
1011
348.4415121949774
1021
380.6149804780543
1031
0.0
1002
}
1002
{
1000
C
1070
     1
1002
}
1001
GENIUS_GENOBJ-N-REC_13
1002
{
1000
OWNER
1000
GEN
1002
}
1001
GENIUS_GENODEF_13
1002
{
1000
HIER
1070
     0
1002
}
1002
{
1000
MANEDIT
1070
     0
1002
}
1002
{
1000
NOSEL
1070
     0
1002
}
1002
{
1000
BEHIND
1070
     0
1002
}
1002
{
1000
OTHER
1070
     0
1002
}
1002
{
1000
REACTOR
1002
}
  0
LINE
  5
17F2
330
37
100
AcDbEntity
  8
0
100
AcDbLine
 10
345.2465121949772
 20
436.4899804780543
 30
0.0
 11
239.4454288801248
 21
436.4899804780545
 31
0.0
  0
LINE
  5
17F3
330
37
100
AcDbEntity
  8
0
100
AcDbLine
 10
317.9915121949766
 20
383.9899804780543
 30
0.0
 11
239.4454288801248
 21
383.9899804780546
 31
0.0
  0
HATCH
  5
17F4
330
37
100
AcDbEntity
  8
細線
100
AcDbHatch
 10
0.0
 20
0.0
 30
0.0
210
0.0
220
0.0
230
1.0
  2
_U
 70
     0
 71
     0
 91
        1
 92
        1
 93
        4
 72
     1
 10
331.7801828348602
 20
383.8099804780543
 11
345.2465121949772
 21
383.8099804780543
 72
     1
 10
345.2465121949772
 20
383.8099804780543
 11
345.2465121949772
 21
411.2449804780549
 72
     1
 10
345.2465121949772
 20
411.2449804780549
 11
317.8115121949768
 21
383.8099804780545
 72
     1
 10
317.8115121949768
 20
383.8099804780545
 11
331.7801828348602
 21
383.8099804780543
 97
        0
 75
     0
 76
     0
 52
0.0
 41
2.299999999999999
 77
     1
 78
     2
 53
0.0
 43
-2388.000001758108
 44
-662.200001778463
 45
0.0
 46
2.299999999999999
 79
     0
 53
90.0
 43
-2388.000001758108
 44
-662.200001778463
 45
-2.299999999999999
 46
0.0000000000000001
 79
     0
 98
        1
 10
-2388.000001758108
 20
-662.200001778463
1001
GENIUS_GENODEF_13
1002
{
1000
HIER
1070
     0
1002
}
1002
{
1000
MANEDIT
1070
     0
1002
}
1002
{
1000
NOSEL
1070
     0
1002
}
1002
{
1000
BEHIND
1070
     0
1002
}
1002
{
1000
OTHER
1070
     0
1002
}
1002
{
1000
REACTOR
1002
}
1001
GENIUS_GENOBJ-N-HTC_13
1002
{
1000
OWNER
1000
GEN
1002
}
1001
GENIUS_GENHATCH_13
1002
{
1000
DATA
1040
45.0
1042
2.299999999999999
1000
_U
1070
     1
1011
332.2571463576933
1021
391.8727002692067
1031
0.0
1002
}
1002
{
1000
UCS
1010
0.0
1020
0.0
1030
0.0
1010
1.0
1020
0.0
1030
0.0
1010
0.0
1020
1.0
1030
0.0
1002
}
  0
LINE
  5
17F5
330
37
100
AcDbEntity
  8
細線
100
AcDbLine
 10
347.2896690598691
 20
237.0247696217234
 30
0.0
 11
347.2896690598691
 21
203.0247696217243
 31
0.0
  0
DIMENSION
  5
17F6
330
37
100
AcDbEntity
  8
0
100
AcDbDimension
  2
*D207
 10
361.9224673766039
 20
208.0247696217243
 30
0.0
 11
357.9224673766038
 21
220.0247696217239
 31
0.0
 70
    32
 71
     5
 42
23.99999999999909
  3
OSAMARI_標準
100
AcDbAlignedDimension
 13
347.2896690598691
 23
232.0247696217234
 33
0.0
 14
347.2896690598691
 24
208.0247696217243
 34
0.0
 50
90.0
100
AcDbRotatedDimension
  0
INSERT
  5
17F7
330
37
100
AcDbEntity
  8
0
100
AcDbBlockReference
  2
矢印1
 10
361.9224673766039
 20
272.8088140188411
 30
0.0
 41
-0.8000000000001818
 42
0.7999999999999546
 43
0.8
  0
TEXT
  5
17F8
330
37
100
AcDbEntity
  8
5-文字
100
AcDbText
 10
258.7042587551505
 20
241.9608699647238
 30
0.0
 40
4.999999997999999
  1
網押さえビード溝
  7
ｺﾞｼｯｸ
100
AcDbText
  0
LINE
  5
17F9
330
37
100
AcDbEntity
  8
0
100
AcDbLine
 10
259.028406133064
 20
239.9146631711119
 30
0.0
 11
313.9613379697439
 21
239.914663171112
 31
0.0
  0
LINE
  5
17FA
330
37
100
AcDbEntity
  8
0
100
AcDbLine
 10
259.028406133064
 20
239.9146631711119
 30
0.0
 11
241.4500741017655
 21
213.4520782751533
 31
0.0
  0
DIMENSION
  5
17FB
330
37
100
AcDbEntity
  8
0
100
AcDbDimension
  2
*D208
 10
157.250422250192
 20
239.7595450360161
 30
0.0
 11
153.250422250192
 21
219.8595450360162
 31
0.0
 70
    32
 71
     5
 42
39.79999999999995
  3
OSAMARI_標準
100
AcDbAlignedDimension
 13
133.9180051397088
 23
199.9595450360161
 33
0.0
 14
126.9180051397088
 24
239.7595450360161
 34
0.0
 50
270.0
100
AcDbRotatedDimension
1001
ACAD
1000
DSTYLE
1002
{
1070
   271
1070
     0
1002
}
  0
ENDSEC
  0
SECTION
  2
OBJECTS
  0
DICTIONARY
  5
C
330
0
100
AcDbDictionary
281
     1
  3
ACAD_2007HEADERVARS_RT
350
1A38
  3
ACAD_COLOR
350
30
  3
ACAD_GROUP
350
D
  3
ACAD_LAYOUT
350
2F
  3
ACAD_MATERIAL
350
10
  3
ACAD_MLINESTYLE
350
2C
  3
ACAD_PLOTSETTINGS
350
2E
  3
ACAD_PLOTSTYLENAME
350
E
  3
ACAD_TABLESTYLE
350
31
  3
ACAD_VISUALSTYLE
350
14
  3
AcDbVariableDictionary
350
1474
  3
AcmDictionary
350
9F
  3
AMG
350
42
  3
AMGSNAPSETTINGS
350
E0
  3
DWGPROPS
350
1A37
  0
DICTIONARY
  5
1442
330
8
100
AcDbDictionary
280
     1
281
     1
  0
DICTIONARY
  5
4FB
330
2
100
AcDbDictionary
280
     1
281
     1
  3
ACAD_LAYERSTATES
360
4FC
  0
DICTIONARY
  5
1A38
102
{ACAD_REACTORS
330
C
102
}
330
C
100
AcDbDictionary
281
     1
  3
DIMARCSYM
350
1A39
  3
DIMJOGANG
350
1A3A
  0
DICTIONARY
  5
30
102
{ACAD_REACTORS
330
C
102
}
330
C
100
AcDbDictionary
281
     1
  0
DICTIONARY
  5
D
102
{ACAD_REACTORS
330
C
102
}
330
C
100
AcDbDictionary
281
     1
  0
DICTIONARY
  5
2F
102
{ACAD_REACTORS
330
C
102
}
330
C
100
AcDbDictionary
281
     1
  3
Model
350
3A
  3
レイアウト1
350
36
  3
レイアウト2
350
3E
  0
DICTIONARY
  5
10
102
{ACAD_REACTORS
330
C
102
}
330
C
100
AcDbDictionary
281
     1
  3
ByBlock
350
12
  3
ByLayer
350
11
  3
Global
350
13
  0
DICTIONARY
  5
2C
102
{ACAD_REACTORS
330
C
102
}
330
C
100
AcDbDictionary
281
     1
  3
Standard
350
2D
  0
DICTIONARY
  5
2E
102
{ACAD_REACTORS
330
C
102
}
330
C
100
AcDbDictionary
281
     1
  0
ACDBDICTIONARYWDFLT
  5
E
102
{ACAD_REACTORS
330
C
102
}
330
C
100
AcDbDictionary
281
     1
  3
Normal
350
F
100
AcDbDictionaryWithDefault
340
F
  0
DICTIONARY
  5
31
102
{ACAD_REACTORS
330
C
102
}
330
C
100
AcDbDictionary
281
     1
  3
Standard
350
32
  0
DICTIONARY
  5
14
102
{ACAD_REACTORS
330
C
102
}
330
C
100
AcDbDictionary
281
     1
  3
2dWireframe
350
1A
  3
3D Hidden
350
1C
  3
3dWireframe
350
1B
  3
Basic
350
19
  3
Brighten
350
20
  3
ColorChange
350
24
  3
Conceptual
350
1D
  3
Dim
350
1F
  3
Facepattern
350
23
  3
Flat
350
15
  3
FlatWithEdges
350
16
  3
Gouraud
350
17
  3
GouraudWithEdges
350
18
  3
Linepattern
350
22
  3
Realistic
350
1E
  3
Thicken
350
21
  0
DICTIONARY
  5
1474
102
{ACAD_REACTORS
330
C
102
}
330
C
100
AcDbDictionary
281
     1
  3
CTABLESTYLE
350
1475
  3
DIMASSOC
350
1479
  3
HIDETEXT
350
1478
  3
INDEXCTL
350
1477
  3
SORTENTS
350
1476
  0
DICTIONARY
  5
9F
102
{ACAD_REACTORS
330
C
102
}
330
C
100
AcDbDictionary
281
     1
  3
AcmStdDictionary
350
AA
  3
AMDTSECTSYM_ARROWCOLOR
350
CA
  0
DICTIONARY
  5
42
102
{ACAD_REACTORS
330
C
102
}
330
C
100
AcDbDictionary
281
     1
  0
DICTIONARY
  5
E0
102
{ACAD_REACTORS
330
C
102
}
330
C
100
AcDbDictionary
281
     1
  0
XRECORD
  5
1A37
102
{ACAD_REACTORS
330
C
102
}
330
C
100
AcDbXrecord
280
     1
  1
DWGPROPS COOKIE
  2

  3

  4

  6

  7

  8
坪井
  9

300
=
301
=
302
=
303
=
304
=
305
=
306
=
307
=
308
=
309
=
 40
0.0021012384259259
 41
2454277.36547978
 42
2454281.396657801
  1

 90
        0
  0
DICTIONARY
  5
4FC
102
{ACAD_REACTORS
330
4FB
102
}
330
4FB
100
AcDbDictionary
281
     1
  0
XRECORD
  5
1A39
102
{ACAD_REACTORS
330
1A38
102
}
330
1A38
100
AcDbXrecord
280
     1
 70
     1
  0
XRECORD
  5
1A3A
102
{ACAD_REACTORS
330
1A38
102
}
330
1A38
100
AcDbXrecord
280
     1
 40
1.570796326794896
  0
LAYOUT
  5
3A
102
{ACAD_XDICTIONARY
360
1A45
102
}
102
{ACAD_REACTORS
330
2F
102
}
330
2F
100
AcDbPlotSettings
  1

  2
RICOH imagio Neo C455 RPCS
  4

  6

 40
0.0
 41
0.0
 42
0.0
 43
0.0
 44
0.0
 45
0.0
 46
0.0
 47
0.0
 48
0.0
 49
0.0
140
0.0
141
0.0
142
1.0
143
1.0
 70
  1712
 72
     0
 73
     0
 74
     0
  7

 75
     0
147
1.0
148
0.0
149
0.0
100
AcDbLayout
  1
Model
 70
     1
 71
     0
 10
0.0
 20
0.0
 11
12.0
 21
9.0
 12
0.0
 22
0.0
 32
0.0
 14
0.0
 24
0.0
 34
0.0
 15
0.0
 25
0.0
 35
0.0
146
0.0
 13
0.0
 23
0.0
 33
0.0
 16
1.0
 26
0.0
 36
0.0
 17
0.0
 27
1.0
 37
0.0
 76
     0
330
37
331
28
  0
LAYOUT
  5
36
102
{ACAD_XDICTIONARY
360
1A43
102
}
102
{ACAD_REACTORS
330
2F
102
}
330
2F
100
AcDbPlotSettings
  1

  2
RICOH imagio Neo C455 RPCS
  4

  6

 40
0.0
 41
0.0
 42
0.0
 43
0.0
 44
0.0
 45
0.0
 46
0.0
 47
0.0
 48
0.0
 49
0.0
140
0.0
141
0.0
142
1.0
143
1.0
 70
   688
 72
     0
 73
     0
 74
     5
  7

 75
    16
147
1.0
148
0.0
149
0.0
100
AcDbLayout
  1
レイアウト1
 70
     1
 71
     1
 10
0.0
 20
0.0
 11
420.0
 21
297.0
 12
0.0
 22
0.0
 32
0.0
 14
1.000000000000000E+20
 24
1.000000000000000E+20
 34
1.000000000000000E+20
 15
-1.000000000000000E+20
 25
-1.000000000000000E+20
 35
-1.000000000000000E+20
146
0.0
 13
0.0
 23
0.0
 33
0.0
 16
1.0
 26
0.0
 36
0.0
 17
0.0
 27
1.0
 37
0.0
 76
     0
330
33
  0
LAYOUT
  5
3E
102
{ACAD_XDICTIONARY
360
1A47
102
}
102
{ACAD_REACTORS
330
2F
102
}
330
2F
100
AcDbPlotSettings
  1

  2
RICOH imagio Neo C455 RPCS
  4

  6

 40
0.0
 41
0.0
 42
0.0
 43
0.0
 44
0.0
 45
0.0
 46
0.0
 47
0.0
 48
0.0
 49
0.0
140
0.0
141
0.0
142
1.0
143
1.0
 70
   688
 72
     0
 73
     0
 74
     5
  7

 75
    16
147
1.0
148
0.0
149
0.0
100
AcDbLayout
  1
レイアウト2
 70
     1
 71
     2
 10
0.0
 20
0.0
 11
12.0
 21
9.0
 12
0.0
 22
0.0
 32
0.0
 14
0.0
 24
0.0
 34
0.0
 15
0.0
 25
0.0
 35
0.0
146
0.0
 13
0.0
 23
0.0
 33
0.0
 16
1.0
 26
0.0
 36
0.0
 17
0.0
 27
1.0
 37
0.0
 76
     0
330
3B
  0
MATERIAL
  5
12
102
{ACAD_XDICTIONARY
360
1A3D
102
}
102
{ACAD_REACTORS
330
10
102
}
330
10
100
AcDbMaterial
  1
ByBlock
  0
MATERIAL
  5
11
102
{ACAD_XDICTIONARY
360
1A3B
102
}
102
{ACAD_REACTORS
330
10
102
}
330
10
100
AcDbMaterial
  1
ByLayer
  0
MATERIAL
  5
13
102
{ACAD_XDICTIONARY
360
1A3F
102
}
102
{ACAD_REACTORS
330
10
102
}
330
10
100
AcDbMaterial
  1
Global
  0
MLINESTYLE
  5
2D
102
{ACAD_REACTORS
330
2C
102
}
330
2C
100
AcDbMlineStyle
  2
STANDARD
 70
     0
  3

 62
   256
 51
90.0
 52
90.0
 71
     2
 49
0.5
 62
   256
  6
BYLAYER
 49
-0.5
 62
   256
  6
BYLAYER
  0
ACDBPLACEHOLDER
  5
F
102
{ACAD_REACTORS
330
E
102
}
330
E
  0
TABLESTYLE
  5
32
102
{ACAD_XDICTIONARY
360
1A41
102
}
102
{ACAD_REACTORS
330
31
102
}
330
31
100
AcDbTableStyle
  3
Standard
 70
     0
 71
     0
 40
1.5
 41
1.5
280
     0
281
     0
  7
Standard
140
4.5
170
     2
 62
     0
 63
     7
283
     0
274
    -2
284
     1
 64
     0
275
    -2
285
     1
 65
     0
276
    -2
286
     1
 66
     0
277
    -2
287
     1
 67
     0
278
    -2
288
     1
 68
     0
279
    -2
289
     1
 69
     0
  7
Standard
140
6.0
170
     5
 62
     0
 63
     7
283
     0
274
    -2
284
     1
 64
     0
275
    -2
285
     1
 65
     0
276
    -2
286
     1
 66
     0
277
    -2
287
     1
 67
     0
278
    -2
288
     1
 68
     0
279
    -2
289
     1
 69
     0
  7
Standard
140
4.5
170
     5
 62
     0
 63
     7
283
     0
274
    -2
284
     1
 64
     0
275
    -2
285
     1
 65
     0
276
    -2
286
     1
 66
     0
277
    -2
287
     1
 67
     0
278
    -2
288
     1
 68
     0
279
    -2
289
     1
 69
     0
  0
VISUALSTYLE
  5
1A
102
{ACAD_REACTORS
330
14
102
}
330
14
100
AcDbVisualStyle
  2
2dWireframe
 70
     4
 71
     0
 72
     2
 73
     0
 90
        0
 40
-0.6
 41
-30.0
 62
     5
 63
     7
 74
     1
 91
        4
 64
     7
 65
   257
 75
     1
175
     1
 42
1.0
 92
        0
 66
   257
 43
1.0
 76
     1
 77
     6
 78
     2
 67
     7
 79
     5
170
     0
171
     0
290
     0
174
     0
 93
        1
 44
0.0
173
     0
291
     0
 45
0.0
1001
ACAD
1000
AcDbSavedByObjectVersion
1070
     0
  0
VISUALSTYLE
  5
1C
102
{ACAD_REACTORS
330
14
102
}
330
14
100
AcDbVisualStyle
  2
3D Hidden
 70
     6
 71
     1
 72
     2
 73
     2
 90
        0
 40
-0.6
 41
-30.0
 62
     5
 63
     7
 74
     2
 91
        2
 64
     7
 65
   257
 75
     2
175
     1
 42
40.0
 92
        0
 66
   257
 43
1.0
 76
     1
 77
     6
 78
     2
 67
     7
 79
     3
170
     0
171
     0
290
     0
174
     0
 93
        1
 44
0.0
173
     0
291
     0
 45
0.0
1001
ACAD
1000
AcDbSavedByObjectVersion
1070
     0
  0
VISUALSTYLE
  5
1B
102
{ACAD_REACTORS
330
14
102
}
330
14
100
AcDbVisualStyle
  2
3dWireframe
 70
     5
 71
     0
 72
     2
 73
     0
 90
        0
 40
-0.6
 41
-30.0
 62
     5
 63
     7
 74
     1
 91
        4
 64
     7
 65
   257
 75
     1
175
     1
 42
1.0
 92
        0
 66
   257
 43
1.0
 76
     1
 77
     6
 78
     2
 67
     7
 79
     5
170
     0
171
     0
290
     0
174
     0
 93
        1
 44
0.0
173
     0
291
     0
 45
0.0
1001
ACAD
1000
AcDbSavedByObjectVersion
1070
     0
  0
VISUALSTYLE
  5
19
102
{ACAD_REACTORS
330
14
102
}
330
14
100
AcDbVisualStyle
  2
Basic
 70
     7
 71
     1
 72
     0
 73
     1
 90
        0
 40
-0.6
 41
-30.0
 62
     5
 63
     7
 74
     0
 91
        4
 64
     7
 65
   257
 75
     1
175
     1
 42
1.0
 92
        8
 66
     7
 43
1.0
 76
     1
 77
     6
 78
     2
 67
     7
 79
     5
170
     0
171
     0
290
     0
174
     0
 93
        1
 44
0.0
173
     0
291
     1
 45
0.0
1001
ACAD
1000
AcDbSavedByObjectVersion
1070
     0
  0
VISUALSTYLE
  5
20
102
{ACAD_REACTORS
330
14
102
}
330
14
100
AcDbVisualStyle
  2
Brighten
 70
    12
 71
     2
 72
     2
 73
     0
 90
        0
 40
-0.6
 41
-30.0
 62
     5
 63
     7
 74
     1
 91
        4
 64
     7
 65
   257
 75
     1
175
     1
 42
1.0
 92
        8
 66
     7
 43
1.0
 76
     1
 77
     6
 78
     2
 67
     7
 79
     5
170
     0
171
     0
290
     0
174
     0
 93
        1
 44
50.0
173
     0
291
     1
 45
0.0
1001
ACAD
1000
AcDbSavedByObjectVersion
1070
     0
  0
VISUALSTYLE
  5
24
102
{ACAD_REACTORS
330
14
102
}
330
14
100
AcDbVisualStyle
  2
ColorChange
 70
    16
 71
     2
 72
     2
 73
     3
 90
        0
 40
-0.6
 41
-30.0
 62
     5
 63
     8
 74
     1
 91
        4
 64
     7
 65
   257
 75
     1
175
     1
 42
1.0
 92
        8
 66
     8
 43
1.0
 76
     1
 77
     6
 78
     2
 67
     7
 79
     5
170
     0
171
     0
290
     0
174
     0
 93
        1
 44
0.0
173
     0
291
     1
 45
0.0
1001
ACAD
1000
AcDbSavedByObjectVersion
1070
     0
  0
VISUALSTYLE
  5
1D
102
{ACAD_REACTORS
330
14
102
}
330
14
100
AcDbVisualStyle
  2
Conceptual
 70
     9
 71
     3
 72
     2
 73
     0
 90
        0
 40
-0.6
 41
-30.0
 62
     5
 63
     7
 74
     2
 91
        2
 64
     7
 65
   257
 75
     1
175
     1
 42
40.0
 92
        8
 66
     7
 43
1.0
 76
     1
 77
     6
 78
     2
 67
     7
 79
     3
170
     0
171
     0
290
     0
174
     0
 93
        1
 44
0.0
173
     0
291
     0
 45
0.0
1001
ACAD
1000
AcDbSavedByObjectVersion
1070
     0
  0
VISUALSTYLE
  5
1F
102
{ACAD_REACTORS
330
14
102
}
330
14
100
AcDbVisualStyle
  2
Dim
 70
    11
 71
     2
 72
     2
 73
     0
 90
        0
 40
-0.6
 41
-30.0
 62
     5
 63
     7
 74
     1
 91
        4
 64
     7
 65
   257
 75
     1
175
     1
 42
1.0
 92
        8
 66
     7
 43
1.0
 76
     1
 77
     6
 78
     2
 67
     7
 79
     5
170
     0
171
     0
290
     0
174
     0
 93
        1
 44
-50.0
173
     0
291
     1
 45
0.0
1001
ACAD
1000
AcDbSavedByObjectVersion
1070
     0
  0
VISUALSTYLE
  5
23
102
{ACAD_REACTORS
330
14
102
}
330
14
100
AcDbVisualStyle
  2
Facepattern
 70
    15
 71
     2
 72
     2
 73
     0
 90
        0
 40
-0.6
 41
-30.0
 62
     5
 63
     7
 74
     1
 91
        4
 64
     7
 65
   257
 75
     1
175
     1
 42
1.0
 92
        8
 66
     7
 43
1.0
 76
     1
 77
     6
 78
     2
 67
     7
 79
     5
170
     0
171
     0
290
     0
174
     0
 93
        1
 44
0.0
173
     0
291
     1
 45
0.0
1001
ACAD
1000
AcDbSavedByObjectVersion
1070
     0
  0
VISUALSTYLE
  5
15
102
{ACAD_REACTORS
330
14
102
}
330
14
100
AcDbVisualStyle
  2
Flat
 70
     0
 71
     2
 72
     1
 73
     1
 90
        2
 40
-0.6
 41
30.0
 62
     5
 63
     7
 74
     0
 91
        4
 64
     7
 65
   257
 75
     1
175
     1
 42
1.0
 92
        8
 66
     7
 43
1.0
 76
     1
 77
     6
 78
     2
 67
     7
 79
     5
170
     0
171
     0
290
     0
174
     0
 93
       13
 44
0.0
173
     0
291
     1
 45
0.0
1001
ACAD
1000
AcDbSavedByObjectVersion
1070
     0
  0
VISUALSTYLE
  5
16
102
{ACAD_REACTORS
330
14
102
}
330
14
100
AcDbVisualStyle
  2
FlatWithEdges
 70
     1
 71
     2
 72
     1
 73
     1
 90
        2
 40
-0.6
 41
30.0
 62
     5
 63
     7
 74
     1
 91
        4
 64
     7
 65
   257
 75
     1
175
     1
 42
1.0
 92
        0
 66
   257
 43
1.0
 76
     1
 77
     6
 78
     2
 67
     7
 79
     5
170
     0
171
     0
290
     0
174
     0
 93
       13
 44
0.0
173
     0
291
     1
 45
0.0
1001
ACAD
1000
AcDbSavedByObjectVersion
1070
     0
  0
VISUALSTYLE
  5
17
102
{ACAD_REACTORS
330
14
102
}
330
14
100
AcDbVisualStyle
  2
Gouraud
 70
     2
 71
     2
 72
     2
 73
     1
 90
        2
 40
-0.6
 41
30.0
 62
     5
 63
     7
 74
     0
 91
        4
 64
     7
 65
   257
 75
     1
175
     1
 42
1.0
 92
        0
 66
     7
 43
1.0
 76
     1
 77
     6
 78
     2
 67
     7
 79
     5
170
     0
171
     0
290
     0
174
     0
 93
       13
 44
0.0
173
     0
291
     1
 45
0.0
1001
ACAD
1000
AcDbSavedByObjectVersion
1070
     0
  0
VISUALSTYLE
  5
18
102
{ACAD_REACTORS
330
14
102
}
330
14
100
AcDbVisualStyle
  2
GouraudWithEdges
 70
     3
 71
     2
 72
     2
 73
     1
 90
        2
 40
-0.6
 41
30.0
 62
     5
 63
     7
 74
     1
 91
        4
 64
     7
 65
   257
 75
     1
175
     1
 42
1.0
 92
        0
 66
   257
 43
1.0
 76
     1
 77
     6
 78
     2
 67
     7
 79
     5
170
     0
171
     0
290
     0
174
     0
 93
       13
 44
0.0
173
     0
291
     1
 45
0.0
1001
ACAD
1000
AcDbSavedByObjectVersion
1070
     0
  0
VISUALSTYLE
  5
22
102
{ACAD_REACTORS
330
14
102
}
330
14
100
AcDbVisualStyle
  2
Linepattern
 70
    14
 71
     2
 72
     2
 73
     0
 90
        0
 40
-0.6
 41
-30.0
 62
     5
 63
     7
 74
     1
 91
        4
 64
     7
 65
   257
 75
     7
175
     7
 42
1.0
 92
        8
 66
     7
 43
1.0
 76
     1
 77
     6
 78
     2
 67
     7
 79
     5
170
     0
171
     0
290
     0
174
     0
 93
        1
 44
0.0
173
     0
291
     1
 45
0.0
1001
ACAD
1000
AcDbSavedByObjectVersion
1070
     0
  0
VISUALSTYLE
  5
1E
102
{ACAD_REACTORS
330
14
102
}
330
14
100
AcDbVisualStyle
  2
Realistic
 70
     8
 71
     2
 72
     2
 73
     0
 90
        0
 40
-0.6
 41
-30.0
 62
     5
 63
     7
 74
     1
 91
        0
 64
     7
 65
   257
 75
     1
175
     1
 42
1.0
 92
        8
 66
     8
 43
1.0
 76
     1
 77
     6
 78
     2
 67
     7
 79
     5
170
     0
171
     0
290
     0
174
     0
 93
       13
 44
0.0
173
     0
291
     0
 45
0.0
1001
ACAD
1000
AcDbSavedByObjectVersion
1070
     0
  0
VISUALSTYLE
  5
21
102
{ACAD_REACTORS
330
14
102
}
330
14
100
AcDbVisualStyle
  2
Thicken
 70
    13
 71
     2
 72
     2
 73
     0
 90
        0
 40
-0.6
 41
-30.0
 62
     5
 63
     7
 74
     1
 91
        4
 64
     7
 65
   257
 75
     1
175
     1
 42
1.0
 92
       12
 66
     7
 43
1.0
 76
     1
 77
     6
 78
     2
 67
     7
 79
     5
170
     0
171
     0
290
     0
174
     0
 93
        1
 44
0.0
173
     0
291
     1
 45
0.0
1001
ACAD
1000
AcDbSavedByObjectVersion
1070
     0
  0
DICTIONARYVAR
  5
1475
102
{ACAD_REACTORS
330
1474
102
}
330
1474
100
DictionaryVariables
280
     0
  1
STANDARD
  0
DICTIONARYVAR
  5
1479
102
{ACAD_REACTORS
330
1474
102
}
330
1474
100
DictionaryVariables
280
     0
  1
2
  0
DICTIONARYVAR
  5
1478
102
{ACAD_REACTORS
330
1474
102
}
330
1474
100
DictionaryVariables
280
     0
  1
1
  0
DICTIONARYVAR
  5
1477
102
{ACAD_REACTORS
330
1474
102
}
330
1474
100
DictionaryVariables
280
     0
  1
0
  0
DICTIONARYVAR
  5
1476
102
{ACAD_REACTORS
330
1474
102
}
330
1474
100
DictionaryVariables
280
     0
  1
127
  0
DICTIONARY
  5
AA
102
{ACAD_REACTORS
330
9F
102
}
330
9F
100
AcDbDictionary
281
     1
  0
XRECORD
  5
CA
102
{ACAD_REACTORS
330
9F
102
}
330
9F
100
AcDbXrecord
280
     1
 90
-1023410169
  0
DICTIONARY
  5
1A45
330
3A
100
AcDbDictionary
280
     1
281
     1
  3
ACAD_XREC_ROUNDTRIP
360
1A46
  0
DICTIONARY
  5
1A43
330
36
100
AcDbDictionary
280
     1
281
     1
  3
ACAD_XREC_ROUNDTRIP
360
1A44
  0
DICTIONARY
  5
1A47
330
3E
100
AcDbDictionary
280
     1
281
     1
  3
ACAD_XREC_ROUNDTRIP
360
1A48
  0
DICTIONARY
  5
1A3D
330
12
100
AcDbDictionary
280
     1
281
     1
  3
ACAD_XREC_ROUNDTRIP
360
1A3E
  0
DICTIONARY
  5
1A3B
330
11
100
AcDbDictionary
280
     1
281
     1
  3
ACAD_XREC_ROUNDTRIP
360
1A3C
  0
DICTIONARY
  5
1A3F
330
13
100
AcDbDictionary
280
     1
281
     1
  3
ACAD_XREC_ROUNDTRIP
360
1A40
  0
DICTIONARY
  5
1A41
330
32
100
AcDbDictionary
280
     1
281
     1
  3
ACAD_XREC_ROUNDTRIP
360
1A42
  0
XRECORD
  5
1A46
102
{ACAD_REACTORS
330
1A45
102
}
330
1A45
100
AcDbXrecord
280
     1
102
SHADEPLOT
 70
     0
102
SHADEPLOTRESLEVEL
 70
     2
102
SHADEPLOTCUSTOMDPI
 70
   300
  0
XRECORD
  5
1A44
102
{ACAD_REACTORS
330
1A43
102
}
330
1A43
100
AcDbXrecord
280
     1
102
SHADEPLOT
 70
     0
102
SHADEPLOTRESLEVEL
 70
     2
102
SHADEPLOTCUSTOMDPI
 70
   300
  0
XRECORD
  5
1A48
102
{ACAD_REACTORS
330
1A47
102
}
330
1A47
100
AcDbXrecord
280
     1
102
SHADEPLOT
 70
     0
102
SHADEPLOTRESLEVEL
 70
     2
102
SHADEPLOTCUSTOMDPI
 70
   300
  0
XRECORD
  5
1A3E
102
{ACAD_REACTORS
330
1A3D
102
}
330
1A3D
100
AcDbXrecord
280
     1
102
MATERIAL
148
0.0
149
0.0
149
0.0
 93
        0
 94
       63
282
     0
 72
     1
 77
     1
171
     1
175
     1
179
     1
273
     0
  0
XRECORD
  5
1A3C
102
{ACAD_REACTORS
330
1A3B
102
}
330
1A3B
100
AcDbXrecord
280
     1
102
MATERIAL
148
0.0
149
0.0
149
0.0
 93
        0
 94
       63
282
     0
 72
     1
 77
     1
171
     1
175
     1
179
     1
273
     0
  0
XRECORD
  5
1A40
102
{ACAD_REACTORS
330
1A3F
102
}
330
1A3F
100
AcDbXrecord
280
     1
102
MATERIAL
148
0.0
149
0.0
149
0.0
 93
        0
 94
       63
282
     0
 72
     1
 77
     1
171
     1
175
     1
179
     1
273
     0
  0
XRECORD
  5
1A42
102
{ACAD_REACTORS
330
1A41
102
}
330
1A41
100
AcDbXrecord
280
     1
102
ACAD_ROUNDTRIP_PRE2007_TABLESTYLE
 90
      512
 91
        0
  1

 92
      512
 93
        0
  2

 94
      512
 95
        0
  3

  0
ENDSEC
  0
EOF
